Barbie.A.Perfect.Christmas.2011.DVDRip.XVID.AC3.HQ.Hive-CM8



IMDB :
Beethoven's Christmas Adventure (Video 2011) - IMDb



Synopsis:
The tale of Conan the Cimmerian and his adventures across the continent of Hyboria on a quest to avenge the murder of his father and the slaughter of his village.
Wupload :
Get Barbie.A.Perfect.Christmas.2011.DVDRip.XVID.AC3.HQ.Hive-CM8.part1.rar on Wupload.com
Get Barbie.A.Perfect.Christmas.2011.DVDRip.XVID.AC3.HQ.Hive-CM8.part2.rar on Wupload.com

Fileserve :
Free File Hosting, Online Storage &amp File Upload with FileServe
Free File Hosting, Online Storage &amp File Upload with FileServe

Filejungle :
http://www.filejungle.com/f/M343D3/B...-CM8.part1.rar
http://www.filejungle.com/f/J5p6hY/B...-CM8.part2.rar

Filesonic :
Download Barbie.A.Perfect.Christmas.2011.DVDRip.XVID.AC3.HQ.Hive-CM8.part1.rar for free on Filesonic.com
Download Barbie.A.Perfect.Christmas.2011.DVDRip.XVID.AC3.HQ.Hive-CM8.part2.rar for free on Filesonic.com

PLEASE REPLY IF YOU LIKE MY POST!

SCREENSHOT :


NFO :
Barbie.A.Perfect.Christmas.2011.DVDRip.XVID.AC3.HQ.Hive-CM8


Thx Hive

CM8 Doing It Right The First Time :D

THIS IS ONE FOR SIMMO :D

Source: DVD-R

Encode:

love doing movies for kids, here is the newest barbie movie.
did the usual sharpness,rgb,denoise
got very nice
enjoy

Video: 720x400 @bitrate 1700 2pass
Audio: English AC3 5.1 @448
Sample: yes included
Bonus: yes 2 mins outtakes in additional file



Barbie: A Perfect Christmas (Video 2011) - IMDb


General
Complete name : Barbie.A.Perfect.Christmas.2011.DVDRip.XVID.AC3.HQ.Hive-CM8.avi
Format : AVI
Format/Info : Audio Video Interleave
File size : 1.11 GiB
Duration : 1h 13mn
Overall bit rate : 2 156 Kbps
Writing application : Nandub v1.0rc2
Writing library : Nandub build 1853/release

Video
ID : 0
Format : MPEG-4 Visual
Format profile : Advanced [email protected]
Format settings, BVOP : 2
Format settings, QPel : Yes
Format settings, GMC : No warppoints
Format settings, Matrix : Default (H.263)
Muxing mode : Packed bitstream
Codec ID : XVID
Codec ID/Hint : XviD
Duration : 1h 13mn
Bit rate : 1 698 Kbps
Width : 720 pixels
Height : 400 pixels
Display aspect ratio : 16:9
Frame rate : 23.976 fps
Color space : YUV
Chroma subsampling : 4:2:0
Bit depth : 8 bits
Scan type : Progressive
Compression mode : Lossy
Bits/(Pixel*Frame) : 0.246
Stream size : 897 MiB (79%)
Writing library : XviD 1.2.1 (UTC 2008-12-04)

Audio
ID : 1
Format : AC-3
Format/Info : Audio Coding 3
Mode extension : CM (complete main)
Codec ID : 2000
Duration : 1h 13mn
Bit rate mode : Constant
Bit rate : 448 Kbps
Channel(s) : 6 channels
Channel positions : Front: L C R, Side: L R, LFE
Sampling rate : 48.0 KHz
Bit depth : 16 bits
Compression mode : Lossy
Delay relative to video : 50ms
Stream size : 237 MiB (21%)
Alignment : Split accross interleaves
Interleave, duration : 42 ms (1.00 video frame)
Interleave, preload duration : 500 ms


Plot:

Join Barbie and her sisters Skipper, Stacie and Chelsea as their holiday vacation plans turn
into a most unexpected adventure and heartwarming lesson. After a snowstorm diverts their plane,
the girls find themselves far from their New York destination and their holiday dreams.

Cast:

Diana Kaarina ... Barbie (voice)
Jennifer Waris ... Barbie (singing voice)
Rachel Harrison ... Skipper (voice)
Nevada Brandt ... Skipper (singing voice)
Lauren Lavoie ... Stacie (voice)
Danielle Bessler ... Stacie (singing voice)
Ashlyn Drummond ... Chelsea (voice)
Lucia Vecchio ... Chelsea (singing voice)



Greetz

ViSiON,SPK,SiC,SANTi,3LT0N,YanKeeS,MAGNET,THC,T0XiC,LKRG,FANTASIA-PLAY,FANTASIA-M,FLAWL3SS,
WBZ,BHRG,NOVA,D2U,Vik,Rapeseed,SAFC,goldadvance,MEMORY100,KaN1vE,Unevano,Pinnz,Wayne
Mr Hive,and all P2P groups
Great Work Guys :D

LOOKING FOR ANYTHING YOU WANT TO LOOK AND SOUND BETTER

[email protected]