Conan.the.Barbarian.(2011).DVDRip.XviD-MAX SPEED



IMDB :
Conan the Barbarian (2011) - IMDb



Synopsis:
The tale of Conan the Cimmerian and his adventures across the continent of Hyboria on a quest to avenge the murder of his father and the slaughter of his village.
Wupload :
Get Conan.the.Barbarian.2011.DVDRip.XviD-M4XSP33D.part1.rar on Wupload.com
Get Conan.the.Barbarian.2011.DVDRip.XviD-M4XSP33D.part2.rar on Wupload.com
Get Conan.the.Barbarian.2011.DVDRip.XviD-M4XSP33D.part3.rar on Wupload.com

Fileserve :
Free File Hosting, Online Storage &amp File Upload with FileServe
Free File Hosting, Online Storage &amp File Upload with FileServe
Free File Hosting, Online Storage &amp File Upload with FileServe

Filejungle :
Filejungle.com - #1 Hosting for Easy & Fast File Storage
Filejungle.com - #1 Hosting for Easy & Fast File Storage
Filejungle.com - #1 Hosting for Easy & Fast File Storage

Filesonic :
Download Conan.the.Barbarian.2011.DVDRip.XviD-M4XSP33D.part1.rar for free on Filesonic.com
Download Conan.the.Barbarian.2011.DVDRip.XviD-M4XSP33D.part2.rar for free on Filesonic.com
Download Conan.the.Barbarian.2011.DVDRip.XviD-M4XSP33D.part3.rar for free on Filesonic.com

PLEASE REPLY IF YOU LIKE MY POST!

SCREENSHOT :


NFO :
General
Complete name : Conan.the.Barbarian.2011.DVDRip.XviD-MAXSPEED.avi
Format : AVI
Format/Info : Audio Video Interleave
Format profile : OpenDML
Format settings : rec
File size : 1.42 GiB
Duration : 1h 52mn
Overall bit rate : 1 799 Kbps
Writing application : AVI-Mux GUI 1.17.8.3, Feb 16 201019:42:50

Video
ID : 0
Format : MPEG-4 Visual
Codec ID : XVID
Codec ID/Hint : XviD
Duration : 1h 52mn
Bit rate : 400 Kbps
Width : 720 pixels
Height : 304 pixels
Display aspect ratio : 2.35:1
Frame rate : 23.976 fps
Color space : YUV
Chroma subsampling : 4:2:0
Compression mode : Lossy
Bits/(Pixel*Frame) : 0.076
Stream size : 323 MiB (22%)

Audio
ID : 1
Format : MPEG Audio
Format version : Version 1
Codec ID : 50
Duration : 1h 52mn
Bit rate : 192 Kbps
Channel(s) : 2 channels
Sampling rate : 48.0 KHz
Compression mode : Lossy
Stream size : 28.7 MiB (2%)
Alignment : Aligned on interleaves
Interleave, duration : 387 ms (9.27 video frames)
Interleave, preload duration : 216 ms
Title : Conan.The.Barbarian.2011