Conan.The.Barbarian.2011.RERIP.XviD.AC3-SANTi



IMDB :
Conan the Barbarian (2011) - IMDb



Synopsis:
The tale of Conan the Cimmerian and his adventures across the continent of Hyboria on a quest to avenge the murder of his father and the slaughter of his village.
Wupload :
Get santi-conanthebarbarian.rerip.xvid.part1.rar on Wupload.com
Get santi-conanthebarbarian.rerip.xvid.part2.rar on Wupload.com
Get santi-conanthebarbarian.rerip.xvid.part3.rar on Wupload.com

Fileserve :
Free File Hosting, Online Storage &amp File Upload with FileServe
Free File Hosting, Online Storage &amp File Upload with FileServe
Free File Hosting, Online Storage &amp File Upload with FileServe

Filejungle :
Filejungle.com - #1 Hosting for Easy & Fast File Storage
Filejungle.com - #1 Hosting for Easy & Fast File Storage
Filejungle.com - #1 Hosting for Easy & Fast File Storage

Filesonic :
Download santi-conanthebarbarian.rerip.xvid.part1.rar for free on Filesonic.com
Download santi-conanthebarbarian.rerip.xvid.part2.rar for free on Filesonic.com
Download santi-conanthebarbarian.rerip.xvid.part3.rar for free on Filesonic.com

PLEASE REPLY IF YOU LIKE MY POST!

SCREENSHOT :


NFO :
General
Complete name : santi-conanthebarbarian.rerip.xvid.avi
Format : AVI
Format/Info : Audio Video Interleave
File size : 1.74 GiB
Duration : 1h 52mn
Overall bit rate : 2 214 Kbps
Writing application : VirtualDubMod 1.5.10.3 | VirtualDub-Fr.org || (build 2550/release)
Writing library : VirtualDubMod build 2550/release

Video
ID : 0
Format : MPEG-4 Visual
Format profile : Advanced [email protected]
Format settings, BVOP : 3
Format settings, QPel : No
Format settings, GMC : No warppoints
Format settings, Matrix : Default (MPEG)
Codec ID : XVID
Codec ID/Hint : XviD
Duration : 1h 52mn
Bit rate : 1 756 Kbps
Width : 720 pixels
Height : 304 pixels
Display aspect ratio : 2.35:1
Frame rate : 23.976 fps
Color space : YUV
Chroma subsampling : 4:2:0
Bit depth : 8 bits
Scan type : Progressive
Compression mode : Lossy
Bits/(Pixel*Frame) : 0.335
Stream size : 1.38 GiB (79%)
Writing library : XviD 64

Audio
ID : 1
Format : AC-3
Format/Info : Audio Coding 3
Mode extension : CM (complete main)
Codec ID : 2000
Duration : 1h 52mn
Bit rate mode : Constant
Bit rate : 448 Kbps
Channel(s) : 6 channels
Channel positions : Front: L C R, Side: L R, LFE
Sampling rate : 48.0 KHz
Bit depth : 16 bits
Compression mode : Lossy
Stream size : 361 MiB (20%)
Alignment : Split accross interleaves
Interleave, duration : 42 ms (1.00 video frame)
Interleave, preload duration : 500 ms