30.Minutes.or.Less.2011.BDRip.XVID.AC3.HQ.Hive-CM8



IMDB :
30 Minutes or Less (2011) - IMDb



Synopsis:
Two fledgling criminals kidnap a pizza delivery guy, strap a bomb to his chest, and inform him that he has mere hours to rob a bank or else.
Wupload :
Get 30.Minutes.or.Less.2011.BDRip.XVID.AC3.HQ.Hive-CM8.part1.rar on Wupload.com
Get 30.Minutes.or.Less.2011.BDRip.XVID.AC3.HQ.Hive-CM8.part2.rar on Wupload.com

Fileserve :
Free File Hosting, Online Storage &amp File Upload with FileServe
Free File Hosting, Online Storage &amp File Upload with FileServe

Filejungle :
Filejungle.com - #1 Hosting for Easy & Fast File Storage
Filejungle.com - #1 Hosting for Easy & Fast File Storage

Filesonic :
Download 30.Minutes.or.Less.2011.BDRip.XVID.AC3.HQ.Hive-CM8.part1.rar for free on Filesonic.com
Download 30.Minutes.or.Less.2011.BDRip.XVID.AC3.HQ.Hive-CM8.part2.rar for free on Filesonic.com

PLEASE REPLY IF YOU LIKE MY POST!

SCREENSHOT :


NFO :
General
Complete name : 30.Minutes.or.Less.2011.BDRip.XVID.AC3.HQ.Hive-CM8.avi
Format : AVI
Format/Info : Audio Video Interleave
File size : 1.25 GiB
Duration : 1h 23mn
Overall bit rate : 2 157 Kbps
Writing application : Nandub v1.0rc2
Writing library : Nandub build 1853/release

Video
ID : 0
Format : MPEG-4 Visual
Format profile : Advanced [email protected]
Format settings, BVOP : 1
Format settings, QPel : Yes
Format settings, GMC : No warppoints
Format settings, Matrix : Default (H.263)
Muxing mode : Packed bitstream
Codec ID : XVID
Codec ID/Hint : XviD
Duration : 1h 23mn
Bit rate : 1 699 Kbps
Width : 720 pixels
Height : 304 pixels
Display aspect ratio : 2.40:1
Frame rate : 23.976 fps
Color space : YUV
Chroma subsampling : 4:2:0
Bit depth : 8 bits
Scan type : Progressive
Compression mode : Lossy
Bits/(Pixel*Frame) : 0.324
Stream size : 1 010 MiB (79%)
Writing library : XviD 1.2.1 (UTC 2008-12-04)

Audio
ID : 1
Format : AC-3
Format/Info : Audio Coding 3
Mode extension : CM (complete main)
Codec ID : 2000
Duration : 1h 23mn
Bit rate mode : Constant
Bit rate : 448 Kbps
Channel(s) : 6 channels
Channel positions : Front: L C R, Side: L R, LFE
Sampling rate : 48.0 KHz
Bit depth : 16 bits
Compression mode : Lossy
Stream size : 266 MiB (21%)
Alignment : Split accross interleaves
Interleave, duration : 42 ms (1.00 video frame)
Interleave, preload duration : 500 ms