Earthling.2011.DvDRiP.XviD-VISUALiS



IMDB :
http://www.imdb.com/title/tt1398999/



Synopsis:
After a mysterious atmospheric event, a small group of people wake up to realize that their entire lives have been a lie. They are in fact aliens disguised as humans. Now they have to make a choice. Live amongst men, or try to find a way back home.
Wupload :
http://www.wupload.com/file/19437896...ALiS.part1.rar
http://www.wupload.com/file/19438631...ALiS.part2.rar

Fileserve :
http://www.fileserve.com/file/M4EwKb...ALiS.part1.rar
http://www.fileserve.com/file/7GhN78...ALiS.part2.rar

Filejungle :
http://www.filejungle.com/f/UYwUkC/E...ALiS.part1.rar
http://www.filejungle.com/f/nud78F/E...ALiS.part2.rar

Filesonic :
http://www.filesonic.com/file/309764...ALiS.part1.rar
http://www.filesonic.com/file/309764...ALiS.part2.rar

PLEASE REPLY IF YOU LIKE MY POST!

SCREENSHOT :


NFO :
Title: Earthling 2011 DvDRiP XviD - VISUALiSE
Format: Xvid
Language: English
Subtitles: No
Imdb: http://www.imdb.com/title/tt1398999/

Plot:
After a mysterious atmospheric event, a small group of people
wake up to realize that their entire lives have been a lie.
They are in fact aliens disguised as humans. Now they have
to make a choice. Live amongst men, or try to find a way
back home

Sources:
Video: Retail DVDR - Many Thanks
Audio: Retail DVDR - Many Thanks

Release Notes:
Earthling 2011 DvDRiP XviD - VISUALiSE
Straight forward rip from the dvdr ran
a few filters etc etc

enjoy.

Info:
Video
ID : 0
Format : MPEG-4 Visual
Codec ID : XVID
Codec ID/Hint : XviD
Duration : 1h 46mn
Bit rate : 76.7 Kbps
Width : 720 pixels
Height : 402 pixels
Display aspect ratio : 16:9
Frame rate : 29.970 fps
Color space : YUV
Chroma subsampling : 4:2:0
Compression mode : Lossy
Bits/(Pixel*Frame) : 0.009
Stream size : 58.2 MiB (5%)

Audio
ID : 1
Format : MPEG Audio
Codec ID : 55
Codec ID/Hint : MP3
Duration : 1h 46mn
Bit rate : 128 Kbps
Channel(s) : 2 channels
Sampling rate : 48.0 KHz
Compression mode : Lossy
Stream size : 97.2 MiB (8%)
Alignment : Aligned on interleaves