Friends.with.Benefits.2011.BluRay.720p.x264.DTS-HDChina



IMDB :
http://www.imdb.com/title/tt1632708/



Synopsis:
A young female headhunter (Mila Kunis) in New York convinces a potential recruit (Justin Timberlake) to leave his job in San Francisco behind and accept a job in the big apple. Despite an attraction to each other, both realize they’re everything they’ve been running from in a relationship and decide to become friends with benefits. It’s the perfect arrangement–until they realize there’s no such thing as no strings attached.
Wupload :
http://www.wupload.com/file/19266545...hina.part1.rar
http://www.wupload.com/file/19266991...hina.part2.rar
http://www.wupload.com/file/19267055...hina.part3.rar
http://www.wupload.com/file/19267245...hina.part4.rar
http://www.wupload.com/file/19267455...hina.part5.rar
http://www.wupload.com/file/19267778...hina.part6.rar
http://www.wupload.com/file/19268028...hina.part7.rar

Fileserve :
http://www.fileserve.com/file/WqhfDT...hina.part1.rar
http://www.fileserve.com/file/vRTxXK...hina.part2.rar
http://www.fileserve.com/file/psHx4c...hina.part3.rar
http://www.fileserve.com/file/zTcYVS...hina.part4.rar
http://www.fileserve.com/file/qN95cq...hina.part5.rar
http://www.fileserve.com/file/thYznk...hina.part6.rar
http://www.fileserve.com/file/X64MeW...hina.part7.rar

Filejungle :
http://www.filejungle.com/f/vrHddF/F...hina.part1.rar
http://www.filejungle.com/f/VBDsDf/F...hina.part2.rar
http://www.filejungle.com/f/3d8B7C/F...hina.part3.rar
http://www.filejungle.com/f/XEgV2u/F...hina.part4.rar
http://www.filejungle.com/f/HmTbNQ/F...hina.part5.rar
http://www.filejungle.com/f/GsEUAX/F...hina.part6.rar
http://www.filejungle.com/f/6zzbQ9/F...hina.part7.rar

Filesonic :
http://www.filesonic.com/file/302635...hina.part1.rar
http://www.filesonic.com/file/302640...hina.part2.rar
http://www.filesonic.com/file/302645...hina.part3.rar
http://www.filesonic.com/file/302651...hina.part4.rar
http://www.filesonic.com/file/302655...hina.part5.rar
http://www.filesonic.com/file/302657...hina.part6.rar
http://www.filesonic.com/file/302657...hina.part7.rar

PLEASE REPLY IF YOU LIKE MY POST!

SCREENSHOT :


NFO :
Friends.with.Benefits.2011.BluRay.720p.x264.DTS-HDChina


--------------------------MEDiA iNFO-----------------------------

SOURCE TYPE.....: BluRay 1080p AVC DTS-HD.MA 5.1
ViDEO BiTRATE...: x264 L4.1 High 2pass @ 4208 kbps
FRAME RATE......: 23.976 fps
AUDiO...........: English DTS 5.1 @ 1510 kbps (DTS-HD.MA Core)
SUBTiTLE........: English/Chinese
RUNTiME.........: 1:49:37.167
ASPECT RATiO....: 2.38:1
RESOLUTiON......: 1280 x 536
FilE SiZE.......: 4.37 GB

--------------------------IMDB iNFO------------------------------

iMDB URL........: http://www.imdb.com/title/tt1632708/
iMDB RATiNG.....: 6.7/10 from 27,702 users
GENRE...........: Comedy | Romance

--------------------------RELEASE iNFO---------------------------

THEATER DATE....: 2011/07/22 (Canada / USA)
RELEASE DATE....: 2011/11/04
ENCODER.........: AllanLee @ HDChina

-------------------------- FiLE iNFO -----------------------------

General
Complete name : Friends.with.Benefits.2011.BluRay.720p.x264.DTS-HDChina.mkv
Format : Matroska
File size : 4.37 GiB
Duration : 1h 49mn
Overall bit rate : 5 719 Kbps
Encoded date : UTC 2011-11-04 14:00:39
Writing application : mkvmerge v4.0.0 ('The Stars were mine') built on Jun 6 2010 16:18:42
Writing library : libebml v1.0.0 + libmatroska v1.0.0

Video
ID : 1
Format : AVC
Format/Info : Advanced Video Codec
Format profile : [email protected]
Format settings, CABAC : Yes
Format settings, ReFrames : 12 frames
Muxing mode : Container [email protected]
Codec ID : V_MPEG4/ISO/AVC
Duration : 1h 49mn
Bit rate : 4 208 Kbps
Width : 1 280 pixels
Height : 536 pixels
Display aspect ratio : 2.35:1
Frame rate : 23.976 fps
Color space : YUV
Chroma subsampling : 4:2:0
Bit depth : 8 bits
Scan type : Progressive
Bits/(Pixel*Frame) : 0.256
Stream size : 3.13 GiB (72%)
Writing library : x264 core 116 r2074 2641b9e

Audio
ID : 2
Format : DTS
Format/Info : Digital Theater Systems
Codec ID : A_DTS
Duration : 1h 49mn
Bit rate mode : Constant
Bit rate : 1 510 Kbps
Channel(s) : 6 channels
Channel positions : Front: L C R, Side: L R, LFE
Sampling rate : 48.0 KHz
Bit depth : 16 bits
Stream size : 1.15 GiB (26%)

Menu
00:00:00.000 : en:Chapter.01
00:05:23.698 : en:Chapter.02
00:12:34.211 : en:Chapter.03
00:17:42.686 : en:Chapter.04
00:24:20.917 : en:Chapter.05
00:32:57.225 : en:Chapter.06
00:41:28.819 : en:Chapter.07
00:45:45.868 : en:Chapter.08
00:54:45.407 : en:Chapter.09
00:58:58.868 : en:Chapter.10
01:03:57.041 : en:Chapter.11
01:13:44.753 : en:Chapter.12
01:20:59.729 : en:Chapter.13
01:27:09.599 : en:Chapter.14
01:32:09.649 : en:Chapter.15
01:38:30.321 : en:Chapter.16

-------------------------- x264 iNFO -----------------------------

x264 [info]: frame I:1952 Avg QP:14.42 size:136749
x264 [info]: frame P:34121 Avg QP:17.45 size: 43809
x264 [info]: frame B:121342 Avg QP:19.47 size: 13941
x264 [info]: consecutive B-frames: 2.0% 1.9% 4.6% 32.0% 20.0% 31.7% 7.7%
x264 [info]: mb I I16..4: 19.0% 52.4% 28.6%
x264 [info]: mb P I16..4: 1.2% 9.2% 1.8% P16..4: 42.1% 25.5% 9.9% 2.1% 0.9% skip: 7.3%
x264 [info]: mb B I16..4: 0.1% 0.9% 0.2% B16..8: 41.0% 12.1% 4.0% direct: 6.0% skip:35.8% L0:43.0% L1:43.2% BI:13.8%
x264 [info]: 8x8 transform intra:70.5% inter:54.0%
x264 [info]: direct mvs spatial:97.6% temporal:2.4%
x264 [info]: coded y,uvDC,uvAC intra: 93.1% 92.6% 83.9% inter: 28.5% 30.1% 18.7%
x264 [info]: i16 v,h,dc,p: 16% 10% 29% 44%
x264 [info]: i8 v,h,dc,ddl,ddr,vr,hd,vl,hu: 16% 11% 8% 8% 11% 12% 11% 11% 11%
x264 [info]: i4 v,h,dc,ddl,ddr,vr,hd,vl,hu: 14% 11% 5% 8% 13% 13% 12% 11% 12%
x264 [info]: i8c dc,h,v,p: 48% 17% 17% 18%
x264 [info]: Weighted P-Frames: Y:1.0% UV:0.5%
x264 [info]: ref P L0: 43.8% 9.2% 18.7% 6.4% 6.0% 3.8% 3.9% 1.8% 2.0% 1.4% 1.6% 1.3% 0.1% 0.0%
x264 [info]: ref B L0: 72.5% 12.2% 5.4% 2.9% 2.0% 1.7% 1.3% 0.8% 0.6% 0.4% 0.2%
x264 [info]: ref B L1: 92.7% 7.3%
x264 [info]: kb/s:4207.87