Carjacked.2011.BRRip.XviD.AC3-playXD



IMDB :
http://www.imdb.com/title/tt1321861/



Synopsis:
Plot: A single mom and her child are carjacked by a bank robber.
Wupload :
http://www.wupload.com/file/19251620...playXD.avi.001
http://www.wupload.com/file/19251697...playXD.avi.002

Fileserve :
http://www.fileserve.com/file/Ag46qs...playXD.avi.001
http://www.fileserve.com/file/4uheVu...playXD.avi.002

Filejungle :
http://www.filejungle.com/f/Ur6tCX/C...playXD.avi.001
http://www.filejungle.com/f/SYTkUQ/C...playXD.avi.002

Filesonic :
http://www.filesonic.com/file/302544...playXD.avi.001
http://www.filesonic.com/file/302543...playXD.avi.002

PLEASE REPLY IF YOU LIKE MY POST!

SCREENSHOT :


NFO :
General
Complete name : Carjacked.2011.BRRip.XviD.AC3-playXD.avi
Format : AVI
Format/Info : Audio Video Interleave
File size : 1.36 GiB
Duration : 1h 29mn
Overall bit rate : 2 177 Kbps
Writing application : VirtualDubMod 1.5.10.2 (build 2540/release)
Writing library : VirtualDubMod build 2540/release

Video
ID : 0
Format : MPEG-4 Visual
Format profile : Advanced [email protected]
Format settings, BVOP : 3
Format settings, QPel : Yes
Format settings, GMC : 3 warppoints
Format settings, Matrix : Default (H.263)
Codec ID : XVID
Codec ID/Hint : XviD
Duration : 1h 29mn
Bit rate : 1 720 Kbps
Width : 720 pixels
Height : 304 pixels
Display aspect ratio : 2.35:1
Frame rate : 23.976 fps
Color space : YUV
Chroma subsampling : 4:2:0
Bit depth : 8 bits
Scan type : Progressive
Compression mode : Lossy
Bits/(Pixel*Frame) : 0.328
Stream size : 1.07 GiB (79%)
Writing library : XviD 1.2.0.dev47 (UTC 2006-11-01)

Audio
ID : 1
Format : AC-3
Format/Info : Audio Coding 3
Mode extension : CM (complete main)
Codec ID : 2000
Duration : 1h 29mn
Bit rate mode : Constant
Bit rate : 448 Kbps
Channel(s) : 2 channels
Channel positions : Front: L R
Sampling rate : 48.0 KHz
Bit depth : 16 bits
Compression mode : Lossy
Stream size : 287 MiB (21%)
Alignment : Split accross interleaves
Interleave, duration : 42 ms (1.00 video frame)
Interleave, preload duration : 500 ms