Conan.The.Barbarian.2011.BRRip.XviD-3LT0N



IMDB :
http://www.imdb.com/title/tt0816462/



Synopsis:
The tale of Conan the Cimmerian and his adventures across the continent of Hyboria on a quest to avenge the murder of his father and the slaughter of his village.
Wupload :
http://www.wupload.com/file/19219144...XviD-3LT0N.rar

Fileserve :
http://www.fileserve.com/file/REN62R...XviD-3LT0N.rar

Filejungle :
http://www.filejungle.com/f/j4X5vT/C...XviD-3LT0N.rar

Filesonic :
http://www.filesonic.com/file/301950...XviD-3LT0N.rar

PLEASE REPLY IF YOU LIKE MY POST!

SCREENSHOT :


NFO :
General
Complete name : Conan.The.Barbarian.2011.BRRip.XviD-3LT0N.avi
Format : AVI
Format/Info : Audio Video Interleave
File size : 700 MiB
Duration : 1h 52mn
Overall bit rate : 869 Kbps

Video
ID : 0
Format : MPEG-4 Visual
Format profile : Advanced [email protected]
Format settings, BVOP : 2
Format settings, QPel : No
Format settings, GMC : No warppoints
Format settings, Matrix : Default (H.263)
Codec ID : XVID
Codec ID/Hint : XviD
Duration : 1h 52mn
Bit rate : 721 Kbps
Width : 640 pixels
Height : 272 pixels
Display aspect ratio : 2.35:1
Frame rate : 23.976 fps
Color space : YUV
Chroma subsampling : 4:2:0
Bit depth : 8 bits
Scan type : Progressive
Compression mode : Lossy
Bits/(Pixel*Frame) : 0.173
Stream size : 581 MiB (83%)
Writing library : XviD 1.2.1 (UTC 2008-12-04)

Audio
ID : 1
Format : MPEG Audio
Format version : Version 1
Format profile : Layer 3
Mode : Joint stereo
Mode extension : MS Stereo
Codec ID : 55
Codec ID/Hint : MP3
Duration : 1h 52mn
Bit rate mode : Variable
Bit rate : 135 Kbps
Nominal bit rate : 144 Kbps
Channel(s) : 2 channels
Sampling rate : 48.0 KHz
Compression mode : Lossy
Stream size : 109 MiB (16%)
Alignment : Aligned on interleaves
Interleave, duration : 24 ms (0.58 video frame)
Interleave, preload duration : 62 ms
Title : English - 3LT0N
Writing library : LAME3.98r
Encoding settings : -m j -V 4 -q 2 -lowpass 17.5 --abr 144