Sarahs.Key.2010.LIMITED.DVDRip.XviD-eXceSs



IMDB :
http://www.imdb.com/title/tt1668200/



Synopsis:
When journalist Julia Jesmond is commissioned to write an article about the notorious 1942 Val dhal Round Up she stumbles on an appalling family secret. The apartment she and her French husband plan to move into was once occupied by the Jewish Starzynski family who were sent to the camps in the Round Up. As Julia investigates their fate she begins searching for their daughter Sarah and also for her own place in the world.
Wupload :
http://www.wupload.com/file/19211371...id-sarahsk.rar

Fileserve :
http://www.fileserve.com/file/3XbQwm...id-sarahsk.rar

Filejungle :
http://www.filejungle.com/f/gtzXD3/e...id-sarahsk.rar

Filesonic :
http://www.filesonic.com/file/300922...id-sarahsk.rar

PLEASE REPLY IF YOU LIKE MY POST!

SCREENSHOT :


NFO :
General
Complete name : excess-xvid-sarahsk.avi
Format : AVI
Format/Info : Audio Video Interleave
File size : 698 MiB
Duration : 1h 42mn
Overall bit rate : 953 Kbps
Writing application : VirtualDubMod 1.5.4.1 (build 2178/release)
Writing library : VirtualDubMod build 2178/release

Video
ID : 0
Format : MPEG-4 Visual
Format profile : Advanced [email protected]
Format settings, BVOP : 1
Format settings, QPel : No
Format settings, GMC : No warppoints
Format settings, Matrix : Custom
Codec ID : XVID
Codec ID/Hint : XviD
Duration : 1h 42mn
Bit rate : 818 Kbps
Width : 640 pixels
Height : 272 pixels
Display aspect ratio : 2.35:1
Frame rate : 23.976 fps
Color space : YUV
Chroma subsampling : 4:2:0
Bit depth : 8 bits
Scan type : Progressive
Compression mode : Lossy
Bits/(Pixel*Frame) : 0.196
Stream size : 600 MiB (86%)
Writing library : XviD 1.2.1 (UTC 2008-12-04)

Audio
ID : 1
Format : MPEG Audio
Format version : Version 1
Format profile : Layer 3
Mode : Joint stereo
Mode extension : MS Stereo
Codec ID : 55
Codec ID/Hint : MP3
Duration : 1h 42mn
Bit rate mode : Constant
Bit rate : 128 Kbps
Channel(s) : 2 channels
Sampling rate : 48.0 KHz
Compression mode : Lossy
Stream size : 93.8 MiB (13%)
Alignment : Aligned on interleaves
Interleave, duration : 83 ms (2.00 video frames)
Interleave, preload duration : 504 ms
Writing library : LAME3.98r
Encoding settings : -m j -V 4 -q 2 -lowpass 17 -b 128
Language : English