Venus.and.Vegas.2010.BRRip.x264.Feel-Free



IMDB :
http://www.imdb.com/title/tt0423474/



Synopsis:
They say what happens in Vegas stays in Vegas…well it’s a whole other matter when you live there! Eric (Eddie Guerra) and Tara (Jaime Pressly), a couple living in Vegas are really in need of a major event — to help them breakup already! He knows she’s dating someone new, but can’t let her go. Desperate to win back her heart, and convinced that his “unemployed” status is the cause of all their problems, Eric agrees to join his buddies Stu (Donald Faison) and Alex (Eddie Kaye Thomas), whose principle talents are scamming and avoiding adulthood, and with girlfriend problems of their own, when they discover the easy score of a lifetime-a boatload of casino chips sitting in a warehouse. The casino chips belong to old-school Vegas mobster Frank Santino (Jon Polito) and just happen to be counterfeit. If it happens in Vegas, it’s bound to get messy! And when the score doesn’t go exactly as planned
Wupload :
http://www.wupload.com/file/19097237...Free.part1.rar
http://www.wupload.com/file/19097255...Free.part2.rar

Fileserve :
http://www.fileserve.com/file/mvQ5ts...Free.part1.rar
http://www.fileserve.com/file/ZP5q9x...Free.part2.rar

Filejungle :
http://www.filejungle.com/f/YXtzfA/V...Free.part1.rar
http://www.filejungle.com/f/3VGRGV/V...Free.part2.rar

PLEASE REPLY IF YOU LIKE MY POST!

SCREENSHOT :


NFO :
General
Complete name : Venus.and.Vegas.2010.BRRip.x264.Feel-Free.mp4
Format : MPEG-4
Format profile : Base Media
Codec ID : isom
File size : 1.29 GiB
Duration : 1h 35mn
Overall bit rate : 1 937 Kbps
Encoded date : UTC 2011-11-02 13:27:43
Tagged date : UTC 2011-11-02 13:27:43

Video
ID : 1
Format : AVC
Format/Info : Advanced Video Codec
Format profile : [email protected]
Format settings, CABAC : Yes
Format settings, ReFrames : 3 frames
Codec ID : avc1
Codec ID/Info : Advanced Video Coding
Duration : 1h 35mn
Bit rate mode : Variable
Bit rate : 1 500 Kbps
Maximum bit rate : 8 616 Kbps
Width : 720 pixels
Height : 400 pixels
Display aspect ratio : 16:9
Frame rate mode : Constant
Frame rate : 23.976 fps
Color space : YUV
Chroma subsampling : 4:2:0
Bit depth : 8 bits
Scan type : Progressive
Bits/(Pixel*Frame) : 0.217
Stream size : 1 019 MiB (77%)
Writing library : x264 core 75 r1251kMod e553a4c
Encoding settings : cabac=1 / ref=3 / deblock=1:0:0 / analyse=0x3:0x113 / me=umh / subme=7 / psy=1 / psy_rd=1.0:0.0 / mixed_ref=1 / me_range=12 / chroma_me=1 / trellis=2 / 8x8dct=1 / cqm=0 / deadzone=21,11 / chroma_qp_offset=-2 / threads=3 / nr=0 / decimate=1 / mbaff=0 / bframes=3 / b_pyramid=0 / b_adapt=2 / b_bias=0 / direct=1 / wpredb=1 / keyint=250 / keyint_min=25 / scenecut=40 / rc_lookahead=60 / rc=cbr / mbtree=1 / bitrate=1500 / ratetol=1.0 / qcomp=0.50 / qpmin=10 / qpmax=51 / qpstep=4 / vbv_maxrate=24000 / vbv_bufsize=24000 / ip_ratio=1.40 / aq=1:1.00
Encoded date : UTC 2011-11-02 13:27:43
Tagged date : UTC 2011-11-02 13:29:16

Audio
ID : 2
Format : AAC
Format/Info : Advanced Audio Codec
Format profile : LC
Codec ID : 40
Duration : 1h 35mn
Bit rate mode : Variable
Bit rate : 444 Kbps
Maximum bit rate : 526 Kbps
Channel(s) : 6 channels
Channel positions : Front: L C R, Side: L R, LFE
Sampling rate : 48.0 KHz
Compression mode : Lossy
Stream size : 304 MiB (23%)
Encoded date : UTC 2011-11-02 13:28:52
Tagged date : UTC 2011-11-02 13:29:16