Boy.Toy.2011.DVDRip.XVID.AC3.HQ.Hive-CM8



IMDB :
http://www.imdb.com/title/tt1051213/



Synopsis:
Jake: an unsuccessful – yet well endowed – underwear model in L.A, who finds a lucrative new line of work as a platonic escort for women of a certain age. But, just as he finds himself a deep-pocketed “sugar mama” in Barbra, he meets Norah: a stunning and laid back Yoga instructor. As Jake’s success blooms, so does his love life; leading him to a crossroad that will change everything.
Wupload :
http://www.wupload.com/file/19096549...-CM8.part1.rar
http://www.wupload.com/file/19096640...-CM8.part2.rar
http://www.wupload.com/file/19096597...-CM8.part3.rar

Fileserve :
http://www.fileserve.com/file/ektSy6...-CM8.part1.rar
http://www.fileserve.com/file/VuvRTw...-CM8.part2.rar
http://www.fileserve.com/file/kNT5rY...-CM8.part3.rar

Filejungle :
http://www.filejungle.com/f/uZ7RfY/B...-CM8.part1.rar
http://www.filejungle.com/f/Ewhkjh/B...-CM8.part2.rar
http://www.filejungle.com/f/MSJePu/B...-CM8.part3.rar

PLEASE REPLY IF YOU LIKE MY POST!

SCREENSHOT :


NFO :
General
Complete name : Boy.Toy.2011.DVDRip.XVID.AC3.HQ.Hive-CM8.avi
Format : AVI
Format/Info : Audio Video Interleave
File size : 1.43 GiB
Duration : 1h 30mn
Overall bit rate : 2 256 Kbps
Writing application : Nandub v1.0rc2
Writing library : Nandub build 1853/release

Video
ID : 0
Format : MPEG-4 Visual
Format profile : Advanced [email protected]
Format settings, BVOP : 2
Format settings, QPel : Yes
Format settings, GMC : No warppoints
Format settings, Matrix : Default (H.263)
Muxing mode : Packed bitstream
Codec ID : XVID
Codec ID/Hint : XviD
Duration : 1h 30mn
Bit rate : 1 799 Kbps
Width : 720 pixels
Height : 400 pixels
Display aspect ratio : 16:9
Frame rate : 23.976 fps
Color space : YUV
Chroma subsampling : 4:2:0
Bit depth : 8 bits
Scan type : Progressive
Compression mode : Lossy
Bits/(Pixel*Frame) : 0.261
Stream size : 1.14 GiB (80%)
Writing library : XviD 1.2.1 (UTC 2008-12-04)

Audio
ID : 1
Format : AC-3
Format/Info : Audio Coding 3
Mode extension : CM (complete main)
Codec ID : 2000
Duration : 1h 30mn
Bit rate mode : Constant
Bit rate : 448 Kbps
Channel(s) : 6 channels
Channel positions : Front: L C R, Side: L R, LFE
Sampling rate : 48.0 KHz
Bit depth : 16 bits
Compression mode : Lossy
Stream size : 290 MiB (20%)
Alignment : Split accross interleaves
Interleave, duration : 42 ms (1.00 video frame)
Interleave, preload duration : 500 ms