Abduction.2011.HDRip.KORSUB.H264.AAC-P2P



IMDB :
http://www.imdb.com/title/tt1600195/



Synopsis:
For as long as he can remember, Nathan Harper (Taylor Lautner) has had the uneasy feeling that he’s living someone else’s life. When he stumbles upon an image of himself as a little boy on a missing persons website, all of Nathan’s darkest fears come true: he realizes his parents are not his own and his life is a lie, carefully fabricated to hide something more mysterious and dangerous than he could have ever imagined. Just as he begins to piece together his true identity, Nathan is targeted by a team of trained killers, forcing him on the run with the only person he can trust, his neighbor, Karen (Lily Collins). Every second counts as Nathan and Karen race to evade an army of assassins and federal operatives. But as his opponents close in, Nathan realizes that the only way he’ll survive — and solve the mystery of his elusive biological father — is to stop running and take matters into his own hands.
Wupload :
http://www.wupload.com/file/19096526...AC-P2P.mp4.001
http://www.wupload.com/file/19096523...AC-P2P.mp4.002

Fileserve :
http://www.fileserve.com/file/5f77gk...AC-P2P.mp4.001
http://www.fileserve.com/file/pDMq6t...AC-P2P.mp4.002

Filejungle :
http://www.filejungle.com/f/ccSHN6/A...AC-P2P.mp4.001
http://www.filejungle.com/f/SgPUy8/A...AC-P2P.mp4.002

PLEASE REPLY IF YOU LIKE MY POST!

SCREENSHOT :


NFO :
General
Complete name : Abduction.2011.HDRip.H264.AAC-P2P.mp4
Format : MPEG-4
Format profile : Base Media / Version 2
Codec ID : mp42
File size : 1.35 GiB
Duration : 1h 46mn
Overall bit rate mode : Variable
Overall bit rate : 1 812 Kbps
Writing application : Lavf52.93.0

Video
ID : 201
Format : AVC
Format/Info : Advanced Video Codec
Format profile : [email protected]
Format settings, CABAC : Yes
Format settings, ReFrames : 2 frames
Codec ID : avc1
Codec ID/Info : Advanced Video Coding
Duration : 1h 46mn
Bit rate : 1 598 Kbps
Nominal bit rate : 1 500 Kbps
Width : 854 pixels
Height : 480 pixels
Display aspect ratio : 16:9
Frame rate mode : Constant
Frame rate : 29.970 fps
Color space : YUV
Chroma subsampling : 4:2:0
Bit depth : 8 bits
Scan type : Progressive
Bits/(Pixel*Frame) : 0.130
Stream size : 1.19 GiB (88%)
Writing library : x264 core 116
Encoding settings : cabac=1 / ref=2 / deblock=1:0:0 / analyse=0x1:0x111 / me=hex / subme=6 / psy=1 / psy_rd=1.0:0.0 / mixed_ref=1 / me_range=16 / chroma_me=1 / trellis=0 / 8x8dct=0 / cqm=0 / deadzone=21,11 / fast_pskip=0 / chroma_qp_offset=-2 / threads=24 / sliced_threads=0 / nr=0 / decimate=1 / mbaff=0 / constrained_intra=0 / bframes=2 / b_pyramid=0 / b_adapt=1 / b_bias=0 / direct=3 / wpredb=1 / wpredp=2 / keyint=15 / keyint_min=8 / scenecut=0 / intra_refresh=0 / rc=abr / mbtree=0 / bitrate=1500 / ratetol=1.0 / qcomp=0.00 / qpmin=10 / qpmax=51 / qpstep=4 / ip_ratio=1.41 / pb_ratio=1.25 / aq=1:1.00
Tagged date : UTC 2011-10-31 17:57:08

Audio
ID : 101
Format : AAC
Format/Info : Advanced Audio Codec
Format profile : LC
Codec ID : 40
Duration : 1h 46mn
Bit rate mode : Variable
Bit rate : 128 Kbps
Channel(s) : 2 channels
Channel positions : Front: L R
Sampling rate : 48.0 KHz
Compression mode : Lossy
Stream size : 97.8 MiB (7%)
Tagged date : UTC 2011-10-31 17:57:08