Venus.And.Vegas.2010.BRRip.XviD-playXD



IMDB :
http://www.imdb.com/title/tt0423474/



Synopsis:
They say what happens in Vegas stays in Vegas…well it’s a whole other matter when you live there! Eric (Eddie Guerra) and Tara (Jaime Pressly), a couple living in Vegas are really in need of a major event — to help them breakup already! He knows she’s dating someone new, but can’t let her go. Desperate to win back her heart, and convinced that his “unemployed” status is the cause of all their problems, Eric agrees to join his buddies Stu (Donald Faison) and Alex (Eddie Kaye Thomas), whose principle talents are scamming and avoiding adulthood, and with girlfriend problems of their own, when they discover the easy score of a lifetime-a boatload of casino chips sitting in a warehouse. The casino chips belong to old-school Vegas mobster Frank Santino (Jon Polito) and just happen to be counterfeit. If it happens in Vegas, it’s bound to get messy! And when the score doesn’t go exactly as planned
Wupload :
http://www.wupload.com/file/19096642...viD-playXD.rar

Fileserve :
http://www.fileserve.com/file/TazzVh...viD-playXD.rar

Filejungle :
http://www.filejungle.com/f/BqDCCy/V...viD-playXD.rar

PLEASE REPLY IF YOU LIKE MY POST!

SCREENSHOT :


NFO :
General
Complete name : Venus.And.Vegas.2010.BRRip.XviD-playXD.avi
Format : AVI
Format/Info : Audio Video Interleave
File size : 700 MiB
Duration : 1h 35mn
Overall bit rate : 1 023 Kbps
Writing application : VirtualDubMod 1.5.10.2 (build 2540/release)
Writing library : VirtualDubMod build 2540/release

Video
ID : 0
Format : MPEG-4 Visual
Format profile : Advanced [email protected]
Format settings, BVOP : 3
Format settings, QPel : Yes
Format settings, GMC : 3 warppoints
Format settings, Matrix : Default (H.263)
Codec ID : XVID
Codec ID/Hint : XviD
Duration : 1h 35mn
Bit rate : 885 Kbps
Width : 640 pixels
Height : 360 pixels
Display aspect ratio : 16:9
Frame rate : 23.976 fps
Color space : YUV
Chroma subsampling : 4:2:0
Bit depth : 8 bits
Scan type : Progressive
Compression mode : Lossy
Bits/(Pixel*Frame) : 0.160
Stream size : 606 MiB (87%)
Writing library : XviD 1.2.0.dev47 (UTC 2006-11-01)

Audio
ID : 1
Format : MPEG Audio
Format version : Version 1
Format profile : Layer 3
Codec ID : 55
Codec ID/Hint : MP3
Duration : 1h 35mn
Bit rate mode : Constant
Bit rate : 128 Kbps
Channel(s) : 2 channels
Sampling rate : 48.0 KHz
Compression mode : Lossy
Stream size : 87.6 MiB (13%)
Alignment : Aligned on interleaves
Interleave, duration : 42 ms (1.00 video frame)
Interleave, preload duration : 504 ms
Writing library : LAME3.97
Encoding settings : -m s -V 4 -q 2 -lowpass 17 -b 128