Apollo 18 2011 R5 LiNE DVDRip XviD-BBnRG

iNFo:
http://www.imdb.com/title/tt1772240/
General
Complete name : Apollo.18.2011.DVDRip.XviD-BBnRG.avi
Format : AVI
Format/Info : Audio Video Interleave
Format profile : OpenDML
Format settings : rec
File size : 1.17 GiB
Duration : 1h 23mn
Overall bit rate : 2 011 Kbps
Movie name : Apollo 18 (2011) DVDRip XviD BBnRG
Writing application : AVI-Mux GUI 1.17.7, Aug 8 2006 20:59:17

Video
ID : 0
Format : MPEG-4 Visual
Format profile : Advanced [email protected]
Format settings, BVOP : 2
Format settings, QPel : No
Format settings, GMC : No warppoints
Format settings, Matrix : Default (H.263)
Codec ID : XVID
Codec ID/Hint : XviD
Duration : 1h 23mn
Bit rate : 1 878 Kbps
Width : 720 pixels
Height : 384 pixels
Display aspect ratio : 1.875
Frame rate : 25.000 fps
Color space : YUV
Chroma subsampling : 4:2:0
Bit depth : 8 bits
Scan type : Progressive
Compression mode : Lossy
Bits/(Pixel*Frame) : 0.272
Stream size : 1.09 GiB (93%)
Writing library : XviD 1.2.1 (UTC 2008-12-04)

Audio
ID : 1
Format : AC-3
Format/Info : Audio Coding 3
Mode extension : CM (complete main)
Codec ID : 2000
Duration : 1h 23mn
Bit rate mode : Constant
Bit rate : 128 Kbps
Channel(s) : 2 channels
Channel positions : Front: L R
Sampling rate : 44.1 KHz
Bit depth : 16 bits
Compression mode : Lossy
Stream size : 76.1 MiB (6%)
Alignment : Aligned on interleaves
Interleave, duration : 70 ms (1.74 video frames)
Interleave, preload duration : 192 ms
Title : Apollo 18 Audio


1-LINK:
http://www.filesonic.com/file/297856...XviD-BBnRG.rar
Or
http://www.wupload.com/file/18819013...XviD-BBnRG.rar
Or
http://www.fileserve.com/file/nVpXmn...XviD-BBnRG.rar

450mb-iNTERCHANGEABLE:
http://www.filesonic.com/file/297854....avi.part1.rar
http://www.filesonic.com/file/297854....avi.part2.rar
http://www.filesonic.com/file/297853....avi.part3.rar
Or
http://www.wupload.com/file/18818955....avi.part1.rar
http://www.wupload.com/file/18818934....avi.part2.rar
http://www.wupload.com/file/18818919....avi.part3.rar
Or
http://www.fileserve.com/file/2A22Tc....avi.part1.rar
http://www.fileserve.com/file/s27GJn....avi.part2.rar
http://www.fileserve.com/file/bcVk9u....avi.part3.rar
Please-Say-Thanks-To-Keep-The-Topic-Alive.