Love.2011.DVDRip.DivX5-Eko



IMDB :
http://www.imdb.com/title/tt1541874/



Synopsis:
After losing contact with Earth, Astronaut Lee Miller becomes stranded in orbit alone aboard the International Space Station.
Wupload :
http://www.wupload.com/file/18809835....DivX5-Eko.rar

Fileserve :
http://www.fileserve.com/file/Mdj4X2....DivX5-Eko.rar

Filejungle :
http://www.filejungle.com/f/aMC3Mj/L....DivX5-Eko.rar

Filesonic :
http://www.filesonic.com/file/295771....DivX5-Eko.rar

PLEASE REPLY IF YOU LIKE MY POST!

SCREENSHOT :


NFO :
General
Complete name : Love.2011.DVDRip.DivX5-Eko.avi
Format : AVI
Format/Info : Audio Video Interleave
File size : 810 MiB
Duration : 1h 23mn
Overall bit rate : 1 356 Kbps

Video
ID : 0
Format : MPEG-4 Visual
Format settings, BVOP : Yes
Format settings, QPel : No
Format settings, GMC : No warppoints
Format settings, Matrix : Default (H.263)
Codec ID : DX50
Codec ID/Hint : DivX 5
Duration : 1h 23mn
Bit rate : 1 216 Kbps
Width : 720 pixels
Height : 480 pixels
Display aspect ratio : 3:2
Frame rate : 29.970 fps
Standard : NTSC
Color space : YUV
Chroma subsampling : 4:2:0
Bit depth : 8 bits
Scan type : Progressive
Compression mode : Lossy
Bits/(Pixel*Frame) : 0.117
Stream size : 727 MiB (90%)
Title : Video
Writing library : DivX 3013

Audio
ID : 1
Format : MPEG Audio
Format version : Version 1
Format profile : Layer 3
Codec ID : 55
Codec ID/Hint : MP3
Duration : 1h 23mn
Bit rate mode : Constant
Bit rate : 128 Kbps
Channel(s) : 2 channels
Sampling rate : 48.0 KHz
Compression mode : Lossy
Stream size : 76.5 MiB (9%)
Alignment : Split accross interleaves
Interleave, duration : 33 ms (1.00 video frame)
Interleave, preload duration : 500 ms
Title : Audio