Killer.Elite.2011.HDRiP.READNFO.AC3.XViD-U.S.M



IMDB :
http://www.imdb.com/title/tt1448755/



Synopsis:
When his mentor is taken captive, a retired member of Britain\’s Elite Special Air Service is forced into action. His mission: kill three assassins dispatched by their cunning leader.
Wupload :
http://www.wupload.com/file/18788254....S.M.part1.rar
http://www.wupload.com/file/18789331....S.M.part2.rar
http://www.wupload.com/file/18787228....S.M.part3.rar

Fileserve :
http://www.fileserve.com/file/5tffGA....S.M.part1.rar
http://www.fileserve.com/file/WV72Ue....S.M.part2.rar
http://www.fileserve.com/file/egmk9S....S.M.part3.rar

Filejungle :
http://www.filejungle.com/f/CZNfCf/K....S.M.part1.rar
http://www.filejungle.com/f/WCjv7w/K....S.M.part2.rar
http://www.filejungle.com/f/dTzwjN/K....S.M.part3.rar

Filesonic :
http://www.filesonic.com/file/295016....S.M.part1.rar
http://www.filesonic.com/file/295028....S.M.part2.rar
http://www.filesonic.com/file/295016....S.M.part3.rar

PLEASE REPLY IF YOU LIKE MY POST!

SCREENSHOT :


NFO :
General
Complete name : Killer.Elite.2011.HDRiP.READNFO.AC3.XViD-U.S.M.AVI
Format : AVI
Format/Info : Audio Video Interleave
Format profile : OpenDML
File size : 2.05 GiB
Duration : 1h 56mn
Overall bit rate : 2 519 Kbps
Writing library : VirtualDub build 32842/release

Video
ID : 0
Format : MPEG-4 Visual
Format profile : Advanced [email protected]
Format settings, BVOP : 2
Format settings, QPel : No
Format settings, GMC : No warppoints
Format settings, Matrix : Default (MPEG)
Muxing mode : Packed bitstream
Codec ID : XVID
Codec ID/Hint : XviD
Duration : 1h 56mn
Bit rate : 2 312 Kbps
Width : 720 pixels
Height : 288 pixels
Display aspect ratio : 2.500
Frame rate : 29.970 fps
Color space : YUV
Chroma subsampling : 4:2:0
Bit depth : 8 bits
Scan type : Progressive
Compression mode : Lossy
Bits/(Pixel*Frame) : 0.372
Stream size : 1.88 GiB (92%)
Writing library : XviD 64

Audio
ID : 1
Format : AC-3
Format/Info : Audio Coding 3
Mode extension : CM (complete main)
Codec ID : 2000
Duration : 1h 56mn
Bit rate mode : Constant
Bit rate : 192 Kbps
Channel(s) : 2 channels
Channel positions : Front: L R
Sampling rate : 48.0 KHz
Bit depth : 16 bits
Compression mode : Lossy
Stream size : 160 MiB (8%)
Alignment : Aligned on interleaves
Interleave, duration : 33 ms (1.00 video frame)
Interleave, preload duration : 512 ms