True.Justice.Urban.Warfare.2011.DVDRip.XviD.AC3-SKmbr



IMDB :
http://www.imdb.com/title/tt1781781/



Synopsis:
Elijah Kane’s (Steven Seagal) city is caught in the crossfire of a gang war between the Japanese mafia, the Yakuza, when they attack the dangerous Mexican gang, MS-13, in Seattle and look to flip a profit doing so. While the gangs war on, a single man has taken the financial crisis personally when he holds his neighborhood bank hostage citing they took not only his house, but his life.
Wupload :
http://www.wupload.com/file/18781292...Kmbr.part1.rar
http://www.wupload.com/file/18781370...Kmbr.part2.rar

Fileserve :
http://www.fileserve.com/file/dW6V2X...Kmbr.part1.rar
http://www.fileserve.com/file/Z5aJVh...Kmbr.part2.rar

Filejungle :
http://www.filejungle.com/f/8rxKfk/T...Kmbr.part1.rar
http://www.filejungle.com/f/yTKcEp/T...Kmbr.part2.rar

Filesonic :
http://www.filesonic.com/file/294779...Kmbr.part1.rar
http://www.filesonic.com/file/294780...Kmbr.part2.rar

PLEASE REPLY IF YOU LIKE MY POST!

SCREENSHOT :


NFO :
General
Complete name : True.Justice.Urban.Warfare.2011.DVDRip.XviD.AC3-SKmbr.avi
Format : AVI
Format/Info : Audio Video Interleave
File size : 1.27 GiB
Duration : 1h 26mn
Overall bit rate : 2 095 Kbps
Writing application : VirtualDubMod 1.5.10.2 (build 2540/release)
Writing library : VirtualDubMod build 2540/release

Video
ID : 0
Format : MPEG-4 Visual
Format profile : Advanced [email protected]
Format settings, BVOP : 2
Format settings, QPel : No
Format settings, GMC : No warppoints
Format settings, Matrix : Default (MPEG)
Codec ID : XVID
Codec ID/Hint : XviD
Duration : 1h 26mn
Bit rate : 1 619 Kbps
Width : 720 pixels
Height : 400 pixels
Display aspect ratio : 16:9
Frame rate : 25.000 fps
Color space : YUV
Chroma subsampling : 4:2:0
Bit depth : 8 bits
Scan type : Progressive
Compression mode : Lossy
Bits/(Pixel*Frame) : 0.225
Stream size : 1 004 MiB (77%)
Writing library : XviD 1.2.1 (UTC 2008-12-04)

Audio
ID : 1
Format : AC-3
Format/Info : Audio Coding 3
Mode extension : CM (complete main)
Codec ID : 2000
Duration : 1h 26mn
Bit rate mode : Constant
Bit rate : 384 Kbps
Channel(s) : 6 channels
Channel positions : Front: L C R, Side: L R, LFE
Sampling rate : 48.0 KHz
Bit depth : 16 bits
Compression mode : Lossy
Stream size : 238 MiB (18%)
Alignment : Split accross interleaves