Born.to.Race.2011.DVDRip.XviD.AC3-GoldenXD



IMDB :
http://www.imdb.com/title/tt1781781/



Synopsis:
It’s a comedy about a guarded woman who finds out she’s dying of cancer, but when she meets her match, the threat of falling in love is scarier than death.
Wupload :
http://www.wupload.com/file/18780928...enXD.part1.rar
http://www.wupload.com/file/18781151...enXD.part2.rar

Fileserve :
http://www.fileserve.com/file/cj5BfC...enXD.part1.rar
http://www.fileserve.com/file/t2ETt9...enXD.part2.rar

Filejungle :
http://www.filejungle.com/f/6zXbHH/B...enXD.part1.rar
http://www.filejungle.com/f/kSGHaX/B...enXD.part2.rar

Filesonic :
http://www.filesonic.com/file/294770...enXD.part1.rar
http://www.filesonic.com/file/294772...enXD.part2.rar

PLEASE REPLY IF YOU LIKE MY POST!

SCREENSHOT :


NFO :
General
Complete name : Born.to.Race.2011.DVDRip.XviD.AC3-GoldenXD.avi
Format : AVI
Format/Info : Audio Video Interleave
File size : 1.44 GiB
Duration : 1h 34mn
Overall bit rate : 2 183 Kbps
Writing application : VirtualDubMod 1.5.10.2 (build 2540/release)
Writing library : VirtualDubMod build 2540/release

Video
ID : 0
Format : MPEG-4 Visual
Format profile : [email protected]
Format settings, BVOP : No
Format settings, QPel : No
Format settings, GMC : No warppoints
Format settings, Matrix : Default (H.263)
Codec ID : XVID
Codec ID/Hint : XviD
Duration : 1h 34mn
Bit rate : 1 789 Kbps
Width : 688 pixels
Height : 368 pixels
Display aspect ratio : 1.870
Frame rate : 25.000 fps
Color space : YUV
Chroma subsampling : 4:2:0
Bit depth : 8 bits
Scan type : Progressive
Compression mode : Lossy
Bits/(Pixel*Frame) : 0.283
Stream size : 1.18 GiB (82%)
Writing library : XviD 1.2.0.dev47 (UTC 2006-11-01)

Audio
ID : 1
Format : AC-3
Format/Info : Audio Coding 3
Mode extension : CM (complete main)
Codec ID : 2000
Duration : 1h 34mn
Bit rate mode : Constant
Bit rate : 384 Kbps
Channel(s) : 6 channels
Channel positions : Front: L C R, Side: L R, LFE
Sampling rate : 48.0 KHz
Bit depth : 16 bits
Compression mode : Lossy
Stream size : 260 MiB (18%)
Alignment : Split accross interleaves
Interleave, duration : 40 ms (1.00 video frame)
Interleave, preload duration : 500 ms