Spy.Kids.2011.m720p.Bluray.x264.Jewelraz



IMDB :
http://www.imdb.com/title/tt1517489/



Synopsis:
A retired spy is called back into action, and to bond with her new step-children, she invites them along for the adventure to stop the evil Timekeeper from taking over the world.
Wupload :
http://www.wupload.com/file/18475670...lraz.part1.rar
http://www.wupload.com/file/18475367...lraz.part2.rar

Fileserve :
http://www.fileserve.com/file/aFWfS6...lraz.part1.rar
http://www.fileserve.com/file/f9v326...lraz.part2.rar

Filejungle :
http://www.filejungle.com/f/XGgzfG/S...lraz.part1.rar
http://www.filejungle.com/f/XmFfpQ/S...lraz.part2.rar

Filesonic :
http://www.filesonic.com/file/289412...lraz.part1.rar
http://www.filesonic.com/file/289504...lraz.part2.rar

PLEASE REPLY IF YOU LIKE MY POST!

SCREENSHOT :


NFO :
Release Name: Spy.Kids.2011.m720p.Bluray.x264.Jewelraz
Filesize: 1.77 GB
Runtime: 1hr 27min 45sec
Bitrate: 2895 kbps
Audio codec: AC3, 48khz, 5:1
Resolution: 1280*720
FPS: 23.98
Language: English
Subtitle: none
Source: 720p Bluray


Encoded date : UTC 2011-11-02 08:21:02
Writing application : mkvmerge v5.0.0 ('Die Wahre Liebe') built on Sep 25 2011 20:33:49
Writing library : libebml v1.2.2 + libmatroska v1.3.0

Video
ID : 1
Format : AVC
Format/Info : Advanced Video Codec
Format profile : [email protected]
Format settings, CABAC : Yes
Format settings, ReFrames : 9 frames
Muxing mode : Header stripping
Codec ID : V_MPEG4/ISO/AVC
Duration : 1h 27mn
Bit rate : 2 514 Kbps
Width : 1 280 pixels
Height : 720 pixels
Display aspect ratio : 16:9
Frame rate : 23.976 fps
Color space : YUV
Chroma subsampling : 4:2:0
Bit depth : 8 bits
Scan type : Progressive
Bits/(Pixel*Frame) : 0.114
Stream size : 1.50 GiB (85%)
Writing library : x264 core 116 r2074 2641b9e

Audio
ID : 2
Format : AC-3
Format/Info : Audio Coding 3
Mode extension : CM (complete main)
Muxing mode : Header stripping
Codec ID : A_AC3
Duration : 1h 27mn
Bit rate mode : Constant
Bit rate : 384 Kbps
Channel(s) : 6 channels
Channel positions : Front: L C R, Side: L R, LFE
Sampling rate : 48.0 KHz
Bit depth : 16 bits
Compression mode : Lossy
Stream size : 241 MiB (13%)