Cat.Run.2011.RC.720p.BDRiP.XViD.AC3-FLAWL3SS



IMDB :
http://www.imdb.com/title/tt1446147/



Synopsis:
When a sexy, high-end escort holds the key evidence to a scandalous government cover-up, two bumbling young detectives become her unlikely protectors from a ruthless assassin hired to silence her.
Wupload :
http://www.wupload.com/file/18478807...L3SS.part1.rar
http://www.wupload.com/file/18478836...L3SS.part2.rar
http://www.wupload.com/file/18478854...L3SS.part3.rar
http://www.wupload.com/file/18478838...L3SS.part4.rar

Fileserve :
http://www.fileserve.com/file/BkGUvg...L3SS.part1.rar
http://www.fileserve.com/file/sjRrVF...L3SS.part2.rar
http://www.fileserve.com/file/EqSZQ4...L3SS.part3.rar
http://www.fileserve.com/file/amhv82...L3SS.part4.rar

Filejungle :
http://www.filejungle.com/f/bXX8VS/C...L3SS.part1.rar
http://www.filejungle.com/f/xAnDV7/C...L3SS.part2.rar
http://www.filejungle.com/f/FB2cDj/C...L3SS.part3.rar
http://www.filejungle.com/f/uKkzgZ/C...L3SS.part4.rar

Filesonic :
http://www.filesonic.com/file/289492...L3SS.part1.rar
http://www.filesonic.com/file/289561...L3SS.part2.rar
http://www.filesonic.com/file/289576...L3SS.part3.rar
http://www.filesonic.com/file/289562...L3SS.part4.rar

PLEASE REPLY IF YOU LIKE MY POST!

SCREENSHOT :


NFO :
General
Complete name : Cat.Run.2011.RC.720p.BDRiP.XViD.AC3-FLAWL3SS.avi
Format : AVI
Format/Info : Audio Video Interleave
Format profile : OpenDML
File size : 3.25 GiB
Duration : 1h 44mn
Overall bit rate : 4 429 Kbps
Writing application : VirtualDubMod 1.5.10.2 (build 2540/release)
Writing library : VirtualDubMod build 2540/release

Video
ID : 0
Format : MPEG-4 Visual
Format profile : Advanced [email protected]
Format settings, BVOP : 2
Format settings, QPel : No
Format settings, GMC : No warppoints
Format settings, Matrix : Default (H.263)
Codec ID : XVID
Codec ID/Hint : XviD
Duration : 1h 44mn
Bit rate : 3 971 Kbps
Width : 1 280 pixels
Height : 720 pixels
Display aspect ratio : 16:9
Frame rate : 23.976 fps
Color space : YUV
Chroma subsampling : 4:2:0
Bit depth : 8 bits
Scan type : Progressive
Compression mode : Lossy
Bits/(Pixel*Frame) : 0.180
Stream size : 2.91 GiB (90%)
Writing library : XviD 1.2.1 (UTC 2008-12-04)

Audio
ID : 1
Format : AC-3
Format/Info : Audio Coding 3
Mode extension : CM (complete main)
Codec ID : 2000
Duration : 1h 44mn
Bit rate mode : Constant
Bit rate : 448 Kbps
Channel(s) : 6 channels
Channel positions : Front: L C R, Side: L R, LFE
Sampling rate : 48.0 KHz
Bit depth : 16 bits
Compression mode : Lossy
Stream size : 336 MiB (10%)
Alignment : Split accross interleaves
Interleave, duration : 42 ms (1.00 video frame)
Interleave, preload duration : 500 ms