Bellflower.2011.BRRip.XviD.AC3-MASSiVE



IMDB :
http://www.imdb.com/title/tt1242599/



Synopsis:
Bellflower follows two friends as they venture out into the world to begin their adult lives. Literally all their free time is spent building flame-throwers and weapons of mass destruction in hopes that a global apocalypse will occur and clear the runway for their imaginary gang “Mother Medusa”. While waiting for the world to end, their call to excitement comes unexpectedly when one of them meets a charismatic young woman and falls hard in love. Quickly integrated into a new group of friends, they set off on a journey of betrayal, love, hate, infidelity and extreme violence more devastating and fiery than any of their apocalyptic fantasies. Often life’s simplest and most obvious truths are the hardest to see, but once you’ve burned everything to the ground it may be the only thing left standing.
Wupload :
http://www.wupload.com/file/18472594...SiVE.part1.rar
http://www.wupload.com/file/18472594...SiVE.part2.rar

Fileserve :
http://www.fileserve.com/file/Q9hn86...SiVE.part1.rar
http://www.fileserve.com/file/37MGNe...SiVE.part2.rar

Filejungle :
http://www.filejungle.com/f/v4c9mZ/B...SiVE.part1.rar
http://www.filejungle.com/f/SRDx2W/B...SiVE.part2.rar

Filesonic :
http://www.filesonic.com/file/289167...SiVE.part1.rar
http://www.filesonic.com/file/289167...SiVE.part2.rar

PLEASE REPLY IF YOU LIKE MY POST!

SCREENSHOT :


NFO :
General
Complete name : BELLFLOWER.2011.BRRip.XviD.AC3-MASSiVE.avi
Format : AVI
Format/Info : Audio Video Interleave
File size : 1.40 GiB
Duration : 1h 46mn
Overall bit rate : 1 881 Kbps

Video
ID : 0
Format : MPEG-4 Visual
Format profile : Advanced [email protected]
Format settings, BVOP : 2
Format settings, QPel : No
Format settings, GMC : No warppoints
Format settings, Matrix : Default (H.263)
Codec ID : XVID
Codec ID/Hint : XviD
Duration : 1h 46mn
Bit rate : 1 425 Kbps
Width : 720 pixels
Height : 304 pixels
Display aspect ratio : 2.35:1
Frame rate : 23.976 fps
Color space : YUV
Chroma subsampling : 4:2:0
Bit depth : 8 bits
Scan type : Progressive
Compression mode : Lossy
Bits/(Pixel*Frame) : 0.272
Stream size : 1.06 GiB (76%)
Writing library : XviD 1.2.1 (UTC 2008-12-04)

Audio
ID : 1
Format : AC-3
Format/Info : Audio Coding 3
Mode extension : CM (complete main)
Codec ID : 2000
Duration : 1h 46mn
Bit rate mode : Constant
Bit rate : 448 Kbps
Channel(s) : 6 channels
Channel positions : Front: L C R, Side: L R, LFE
Sampling rate : 48.0 KHz
Bit depth : 16 bits
Compression mode : Lossy
Stream size : 341 MiB (24%)
Alignment : Aligned on interleaves
Interleave, duration : 64 ms (1.53 video frames)
Interleave, preload duration : 192 ms
Title : Bellflower.2011.LIMITED.720p.BluRay.X264-AMIABLE - [2] English