Killer.Elite.2011.HDRip.XVID.AC3.Partial.BluR.SeT-CM8



IMDB :
http://www.imdb.com/title/tt1448755/



Synopsis:
When his mentor is taken captive, a retired member of Britain\’s Elite Special Air Service is forced into action. His mission: kill three assassins dispatched by their cunning leader.
Wupload :
http://www.wupload.com/file/18461673...-CM8.part1.rar
http://www.wupload.com/file/18461565...-CM8.part2.rar

Fileserve :
http://www.fileserve.com/file/vsHta9...-CM8.part1.rar
http://www.fileserve.com/file/fjUz8R...-CM8.part2.rar

Filejungle :
http://www.filejungle.com/f/CVsSHM/K...-CM8.part1.rar
http://www.filejungle.com/f/h7rwVS/K...-CM8.part2.rar

Filesonic :
http://www.filesonic.com/file/287230...-CM8.part1.rar
http://www.filesonic.com/file/287231...-CM8.part2.rar

PLEASE REPLY IF YOU LIKE MY POST!

SCREENSHOT :


NFO :
General
Complete name : Killer.Elite.2011.HDRip.XVID.AC3.Partial.BluR.SeT-CM8.avi
Format : AVI
Format/Info : Audio Video Interleave
File size : 1.33 GiB
Duration : 1h 56mn
Overall bit rate : 1 634 Kbps
Writing library : VirtualDub build 30091/release

Video
ID : 0
Format : MPEG-4 Visual
Format profile : Advanced [email protected]
Format settings, BVOP : 2
Format settings, QPel : No
Format settings, GMC : No warppoints
Format settings, Matrix : Default (H.263)
Codec ID : XVID
Codec ID/Hint : XviD
Duration : 1h 56mn
Bit rate : 1 430 Kbps
Width : 720 pixels
Height : 304 pixels
Display aspect ratio : 2.35:1
Frame rate : 29.970 fps
Color space : YUV
Chroma subsampling : 4:2:0
Bit depth : 8 bits
Scan type : Progressive
Compression mode : Lossy
Bits/(Pixel*Frame) : 0.218
Stream size : 1.16 GiB (88%)
Writing library : XviD 1.2.1 (UTC 2008-12-04)

Audio
ID : 1
Format : AC-3
Format/Info : Audio Coding 3
Mode extension : CM (complete main)
Codec ID : 2000
Duration : 1h 56mn
Bit rate mode : Constant
Bit rate : 192 Kbps
Channel(s) : 2 channels
Channel positions : Front: L R
Sampling rate : 48.0 KHz
Bit depth : 16 bits
Compression mode : Lossy
Stream size : 160 MiB (12%)
Alignment : Aligned on interleaves
Interleave, duration : 33 ms (1.00 video frame)
Interleave, preload duration : 512 ms