Cowboys.And.Vampires.2010.DVDRip.XviD.AC3.CrEwSaDe



IMDB :
http://www.imdb.com/title/tt1648062/



Synopsis:
The stage is set for terror when a new management team takes over a famous western theme park and film studio and transform their annual Halloween Fright Fest into a spectacular horror event for the tourists billed as “a truly horrifying descent into hell,” The climax of opening night is a thrilling excursion into the town’s “Lost Dutchman’s Cave,” which goes deep into the bowels of the earth, but a couple of park hands enter the cave and stumble upon an ancient burial urn which they accidentally break causing a horrific chain of events to take place and hell opens it’s gates!
Wupload :
http://www.wupload.com/file/18461375...3.CrEwSaDe.rar

Fileserve :
http://www.fileserve.com/file/YNuXYF...3.CrEwSaDe.rar

Filejungle :
http://www.filejungle.com/f/SqfUcx/C...3.CrEwSaDe.rar

Filesonic :
http://www.filesonic.com/file/287229...3.CrEwSaDe.rar

PLEASE REPLY IF YOU LIKE MY POST!

SCREENSHOT :


NFO :
General
Complete name : Cowboys.And.Vampires.2010.DVDRip.XviD.AC3.CrEwSaDe.avi
Format : AVI
Format/Info : Audio Video Interleave
File size : 698 MiB
Duration : 1h 29mn
Overall bit rate : 1 093 Kbps

Video
ID : 0
Format : MPEG-4 Visual
Format profile : Advanced [email protected]
Format settings, BVOP : 2
Format settings, QPel : No
Format settings, GMC : No warppoints
Format settings, Matrix : Default (H.263)
Codec ID : XVID
Codec ID/Hint : XviD
Duration : 1h 29mn
Bit rate : 957 Kbps
Width : 720 pixels
Height : 384 pixels
Display aspect ratio : 1.875
Frame rate : 25.000 fps
Color space : YUV
Chroma subsampling : 4:2:0
Bit depth : 8 bits
Scan type : Progressive
Compression mode : Lossy
Bits/(Pixel*Frame) : 0.138
Stream size : 611 MiB (88%)
Writing library : XviD 1.2.1 (UTC 2008-12-04)

Audio
ID : 1
Format : AC-3
Format/Info : Audio Coding 3
Mode extension : CM (complete main)
Codec ID : 2000
Duration : 1h 29mn
Bit rate mode : Constant
Bit rate : 128 Kbps
Channel(s) : 2 channels
Channel positions : Front: L R
Sampling rate : 48.0 KHz
Bit depth : 16 bits
Compression mode : Lossy
Stream size : 81.8 MiB (12%)
Alignment : Aligned on interleaves
Interleave, duration : 64 ms (1.60 video frames)
Interleave, preload duration : 192 ms
Title : VTS_01_1 T80 2_0ch 224Kbps DELAY 0ms_new