The Michael Jackson Life of an Icon 2011 480p BDRiP XViD-PSiG



IMDB :
http://www.filmweb.pl/film?id=632529



Fileserve :
http://www.fileserve.com/file/C4CHYt....avi.part1.rar
http://www.fileserve.com/file/4RxGSb....avi.part2.rar
http://www.fileserve.com/file/E55SrX....avi.part3.rar
http://www.fileserve.com/file/GG445q....avi.part4.rar

Filejungle :
http://www.filejungle.com/f/gedj5Q/p....avi.part1.rar
http://www.filejungle.com/f/Vnh6Vr/p....avi.part2.rar
http://www.filejungle.com/f/ftr9yM/p....avi.part3.rar
http://www.filejungle.com/f/tngaQW/p....avi.part4.rar

PLEASE REPLY IF YOU LIKE MY POST!

SCREENSHOT :


NFO :
General
Complete name : psig-the.michael.jackson.life.of.an.icon.2011.480p.bdrip.xvid.avi
Format : AVI
Format/Info : Audio Video Interleave
Format profile : OpenDML
File size : 3.12 GiB
Duration : 2h 35mn
Overall bit rate : 2 871 Kbps
Writing application : VirtualDubMod 1.5.10.2 (build 2540/release)
Writing library : VirtualDubMod build 2540/release

Video
ID : 0
Format : MPEG-4 Visual
Format profile : Advanced [email protected]
Format settings, BVOP : 2
Format settings, QPel : No
Format settings, GMC : No warppoints
Format settings, Matrix : Default (MPEG)
Codec ID : XVID
Codec ID/Hint : XviD
Duration : 2h 35mn
Bit rate : 2 221 Kbps
Width : 720 pixels
Height : 400 pixels
Display aspect ratio : 16:9
Frame rate : 23.976 fps
Color space : YUV
Chroma subsampling : 4:2:0
Bit depth : 8 bits
Scan type : Progressive
Compression mode : Lossy
Bits/(Pixel*Frame) : 0.322
Stream size : 2.41 GiB (77%)
Writing library : XviD 1.2.1 (UTC 2008-12-04)

Audio
ID : 1
Format : AC-3
Format/Info : Audio Coding 3
Mode extension : CM (complete main)
Codec ID : 2000
Duration : 2h 35mn
Bit rate mode : Constant
Bit rate : 640 Kbps
Channel(s) : 6 channels
Channel positions : Front: L C R, Side: L R, LFE
Sampling rate : 48.0 KHz
Bit depth : 16 bits
Compression mode : Lossy
Stream size : 711 MiB (22%)
Alignment : Split accross interleaves
Interleave, duration : 42 ms (1.00 video frame)
Interleave, preload duration : 500 ms