Killer Elite 2011 HDRip AC3 H264-CRYS



IMDB :
http://www.imdb.com/title/tt1448755/



Synopsis:
Plot: When his mentor is taken captive, a retired member of Britain\’s Elite Special Air Service is forced into action. His mission: kill three assassins dispatched by their cunning leader.
Wupload :
http://www.wupload.com/file/18020477...e.2011.mkv.rar

Fileserve :
http://www.fileserve.com/file/Cu24hz...e.2011.mkv.rar

Filejungle :
http://www.filejungle.com/f/yBFsat/K...e.2011.mkv.rar

Filesonic :
http://www.filesonic.com/file/285985...e.2011.mkv.rar

PLEASE REPLY IF YOU LIKE MY POST!

SCREENSHOT :


NFO :
General
Complete name : Killer.Elite.2011.mkv
Format : Matroska
Format version : Version 1
File size : 703 MiB
Duration : 1h 56mn
Overall bit rate : 843 Kbps
Encoded date : UTC 2011-10-31 18:09:52
Writing library : WonderShare Matroska Muxer

Video
ID : 1
Format : AVC
Format/Info : Advanced Video Codec
Format profile : [email protected]
Format settings, CABAC : No
Format settings, ReFrames : 1 frame
Format settings, GOP : M=1, N=25
Codec ID : V_MPEG4/ISO/AVC
Duration : 1h 56mn
Bit rate : 698 Kbps
Width : 720 pixels
Height : 272 pixels
Display aspect ratio : 2.647
Frame rate : 23.976 fps
Original frame rate : 23.000 fps
Color space : YUV
Chroma subsampling : 4:2:0
Bit depth : 8 bits
Scan type : Progressive
Bits/(Pixel*Frame) : 0.149
Stream size : 583 MiB (83%)

Audio
ID : 2
Format : AC-3
Format/Info : Audio Coding 3
Mode extension : CM (complete main)
Codec ID : A_AC3
Duration : 1h 56mn
Bit rate mode : Constant
Bit rate : 128 Kbps
Channel(s) : 2 channels
Channel positions : Front: L R
Sampling rate : 48.0 KHz
Bit depth : 16 bits
Compression mode : Lossy
Stream size : 107 MiB (15%)