Killer.Elite.2011.READNFO.HDRip.XViD.AC3-DTRG



IMDB :
http://www.imdb.com/title/tt1448755/



Synopsis:
Plot: When his mentor is taken captive, a retired member of Britain\’s Elite Special Air Service is forced into action. His mission: kill three assassins dispatched by their cunning leader.
Wupload :
http://www.wupload.com/file/17908493....avi.part1.rar
http://www.wupload.com/file/17908717....avi.part2.rar

Fileserve :
http://www.fileserve.com/file/KGWQBR....avi.part1.rar
http://www.fileserve.com/file/q8rgCu....avi.part2.rar

Filejungle :
http://www.filejungle.com/f/34u7Ez/K....avi.part1.rar
http://www.filejungle.com/f/uGBN8x/K....avi.part2.rar

Filesonic :
http://www.filesonic.com/file/285778....avi.part1.rar
http://www.filesonic.com/file/285781....avi.part2.rar

PLEASE REPLY IF YOU LIKE MY POST!

SCREENSHOT :


NFO :
General
Complete name : Killer.Elite.2011.READNFO.HDRip.XViD.AC3-DTRG.avi
Format : AVI
Format/Info : Audio Video Interleave
File size : 1.75 GiB
Duration : 1h 56mn
Overall bit rate : 2 153 Kbps
Writing application : VirtualDubMod 1.5.10.2 (build 2540/release)
Writing library : VirtualDubMod build 2540/release

Video
ID : 0
Format : MPEG-4 Visual
Format profile : Advanced [email protected]
Format settings, BVOP : 2
Format settings, QPel : No
Format settings, GMC : No warppoints
Format settings, Matrix : Default (H.263)
Muxing mode : Packed bitstream
Codec ID : XVID
Codec ID/Hint : XviD
Duration : 1h 56mn
Bit rate : 1 951 Kbps
Width : 720 pixels
Height : 246 pixels
Display aspect ratio : 2.927
Frame rate : 23.976 fps
Color space : YUV
Chroma subsampling : 4:2:0
Bit depth : 8 bits
Scan type : Progressive
Compression mode : Lossy
Bits/(Pixel*Frame) : 0.459
Stream size : 1.59 GiB (91%)
Writing library : XviD 64

Audio
ID : 1
Format : AC-3
Format/Info : Audio Coding 3
Mode extension : CM (complete main)
Codec ID : 2000
Duration : 1h 56mn
Bit rate mode : Constant
Bit rate : 192 Kbps
Channel(s) : 2 channels
Channel positions : Front: L R
Sampling rate : 48.0 KHz
Bit depth : 16 bits
Compression mode : Lossy
Stream size : 160 MiB (9%)
Alignment : Split accross interleaves
Interleave, duration : 42 ms (1.00 video frame)
Interleave, preload duration : 500 ms