Killer.Elite.2011.BRRiP.XviD.AC3-Cropped.SMS



IMDB :
http://www.imdb.com/title/tt1448755/



Synopsis:
Plot: When his mentor is taken captive, a retired member of Britain\’s Elite Special Air Service is forced into action. His mission: kill three assassins dispatched by their cunning leader.
Wupload :
http://www.wupload.com/file/17909024...ed.SMS.avi.rar

Fileserve :
http://www.fileserve.com/file/BuBUrG...ed.SMS.avi.rar

Filejungle :
http://www.filejungle.com/f/sfJQed/K...ed.SMS.avi.rar

Filesonic :
http://www.filesonic.com/file/285774...ed.SMS.avi.rar

PLEASE REPLY IF YOU LIKE MY POST!

SCREENSHOT :


NFO :
General
Complete name : Killer.Elite.2011.BRRiP.XviD.AC3-Cropped.SMS.avi
Format : AVI
Format/Info : Audio Video Interleave
File size : 768 MiB
Duration : 1h 56mn
Overall bit rate : 920 Kbps
Writing library : VirtualDub build 31953/release

Video
ID : 0
Format : MPEG-4 Visual
Format profile : Advanced [email protected]
Format settings, BVOP : 2
Format settings, QPel : No
Format settings, GMC : No warppoints
Format settings, Matrix : Default (H.263)
Muxing mode : Packed bitstream
Codec ID : XVID
Codec ID/Hint : XviD
Duration : 1h 56mn
Bit rate : 716 Kbps
Width : 720 pixels
Height : 246 pixels
Display aspect ratio : 2.927
Frame rate : 29.970 fps
Color space : YUV
Chroma subsampling : 4:2:0
Bit depth : 8 bits
Scan type : Progressive
Compression mode : Lossy
Bits/(Pixel*Frame) : 0.135
Stream size : 598 MiB (78%)
Writing library : XviD 64

Audio
ID : 1
Format : AC-3
Format/Info : Audio Coding 3
Mode extension : CM (complete main)
Codec ID : 2000
Duration : 1h 56mn
Bit rate mode : Constant
Bit rate : 192 Kbps
Channel(s) : 2 channels
Channel positions : Front: L R
Sampling rate : 48.0 KHz
Bit depth : 16 bits
Compression mode : Lossy
Stream size : 160 MiB (21%)
Alignment : Aligned on interleaves
Interleave, duration : 33 ms (1.00 video frame)
Interleave, preload duration : 512 ms