Metal.Tornado.2011.BRRip.XviD.Ac3.Feel-Free



IMDB :
http://www.imdb.com/title/tt1688653/



Synopsis:
Samuel Planck is head of the HELIOS PROJECT – a high tech facility tasked with storing and converting solar rays into an endless supply of renewable energy. After years of research and millions of dollars, it is now time to test the system out. The scientists cheer loudly as initially things go according to plan. But when the facility is unable to control the massive amount of energy coming in, the cheers turn to screams. The charged particles begin swirling around themselves, creating a massive magnetic vortex that quickly becomes the first magnetic tornado on earth!
Wupload :
http://www.wupload.com/file/17908631....avi.part1.rar
http://www.wupload.com/file/17909347....avi.part2.rar

Fileserve :
http://www.fileserve.com/file/tZZF8W....avi.part1.rar
http://www.fileserve.com/file/h4Ngjs....avi.part2.rar

Filejungle :
http://www.filejungle.com/f/c89Jzy/M....avi.part1.rar
http://www.filejungle.com/f/xK8xKt/M....avi.part2.rar

Filesonic :
http://www.filesonic.com/file/285790....avi.part1.rar
http://www.filesonic.com/file/285800....avi.part2.rar

PLEASE REPLY IF YOU LIKE MY POST!

SCREENSHOT :


NFO :
General
Complete name : Metal.Tornado.2011.BRRip.XviD.Ac3.Feel-Free.avi
Format : AVI
Format/Info : Audio Video Interleave
File size : 1.22 GiB
Duration : 1h 30mn
Overall bit rate : 1 946 Kbps
Writing application : VirtualDubMod 1.5.10.2 (build 2540/release)
Writing library : VirtualDubMod build 2540/release

Video
ID : 0
Format : MPEG-4 Visual
Format profile : Advanced [email protected]
Format settings, BVOP : 1
Format settings, QPel : No
Format settings, GMC : No warppoints
Format settings, Matrix : Default (H.263)
Codec ID : XVID
Codec ID/Hint : XviD
Duration : 1h 30mn
Bit rate : 1 488 Kbps
Width : 640 pixels
Height : 360 pixels
Display aspect ratio : 16:9
Frame rate : 23.976 fps
Color space : YUV
Chroma subsampling : 4:2:0
Bit depth : 8 bits
Scan type : Progressive
Compression mode : Lossy
Bits/(Pixel*Frame) : 0.269
Stream size : 959 MiB (76%)
Writing library : XviD 1.2.1 (UTC 2008-12-04)

Audio
ID : 1
Format : AC-3
Format/Info : Audio Coding 3
Mode extension : CM (complete main)
Codec ID : 2000
Duration : 1h 30mn
Bit rate mode : Constant
Bit rate : 448 Kbps
Channel(s) : 6 channels
Channel positions : Front: L C R, Side: L R, LFE
Sampling rate : 48.0 KHz
Bit depth : 16 bits
Compression mode : Lossy
Stream size : 289 MiB (23%)
Alignment : Aligned on interleaves
Interleave, duration : 42 ms (1.00 video frame)
Interleave, preload duration : 512 ms