Boy Toy 2011 Dvd Rip ANALOG



IMDB :
http://www.imdb.com/title/tt1051213/



Synopsis:
Plot: An unsuccessful underwear model gears up for the role of his life.
Wupload :
http://www.wupload.com/file/17900880...ANALOG.avi.rar

Fileserve :
http://www.fileserve.com/file/rUZA4W...ANALOG.avi.rar

Filejungle :
http://www.filejungle.com/f/QhyqGv/B...ANALOG.avi.rar

Filesonic :
http://www.filesonic.com/file/285301...ANALOG.avi.rar

PLEASE REPLY IF YOU LIKE MY POST!

SCREENSHOT :


NFO :
General
Complete name : B.T.DR.ANALOG.avi
Format : AVI
Format/Info : Audio Video Interleave
File size : 700 MiB
Duration : 1h 30mn
Overall bit rate : 1 081 Kbps
Movie name : B.T.DR.ANALOG
Writing application : VirtualDubMod 1.5.4.1 (build 2178/release) VirtualDubMod build 2178/release
Copyright : ANALOG

Video
ID : 0
Format : MPEG-4 Visual
Format profile : Advanced [email protected]
Format settings, BVOP : 1
Format settings, QPel : No
Format settings, GMC : No warppoints
Format settings, Matrix : Custom
Codec ID : XVID
Codec ID/Hint : XviD
Duration : 1h 30mn
Bit rate : 962 Kbps
Width : 624 pixels
Height : 352 pixels
Display aspect ratio : 16:9
Frame rate : 23.976 fps
Color space : YUV
Chroma subsampling : 4:2:0
Bit depth : 8 bits
Scan type : Progressive
Compression mode : Lossy
Bits/(Pixel*Frame) : 0.183
Stream size : 623 MiB (89%)
Writing library : XviD 1.2.1 (UTC 2008-12-04)

Audio
ID : 1
Format : MPEG Audio
Format version : Version 1
Format profile : Layer 3
Mode : Joint stereo
Mode extension : MS Stereo
Codec ID : 55
Codec ID/Hint : MP3
Duration : 1h 30mn
Bit rate mode : Constant
Bit rate : 112 Kbps
Channel(s) : 2 channels
Sampling rate : 44.1 KHz
Compression mode : Lossy
Stream size : 72.6 MiB (10%)
Alignment : Split accross interleaves
Interleave, duration : 83 ms (2.00 video frames)
Interleave, preload duration : 500 ms
Writing library : LAME3.98r
Encoding settings : -m j -V 4 -q 2 -lowpass 15.6 -b 112
Language : un / English