Bellflower.2011.LIMITED.BRRIP.X264.AC3.CrEwSaDe



IMDB :
http://www.imdb.com/title/tt1242599/



Synopsis:
Plot: Bellflower follows two friends as they venture out into the world to begin their adult lives. Literally all their free time is spent building flame-throwers and weapons of mass destruction in hopes that a global apocalypse will occur and clear the runway for their imaginary gang “Mother Medusa”. While waiting for the world to end, their call to excitement comes unexpectedly when one of them meets a charismatic young woman and falls hard in love. Quickly integrated into a new group of friends, they set off on a journey of betrayal, love, hate, infidelity and extreme violence more devastating and fiery than any of their apocalyptic fantasies. Often life’s simplest and most obvious truths are the hardest to see, but once you’ve burned everything to the ground it may be the only thing left standing.
Wupload :
http://www.wupload.com/file/17900903...EwSaDe.mkv.rar

Fileserve :
http://www.fileserve.com/file/69mtqt...EwSaDe.mkv.rar

Filejungle :
http://www.filejungle.com/f/6d4pzu/B...EwSaDe.mkv.rar

Filesonic :
http://www.filesonic.com/file/285302...EwSaDe.mkv.rar

PLEASE REPLY IF YOU LIKE MY POST!

SCREENSHOT :


NFO :
General
Unique ID : 252965568240674743549309708313586943353 (0xBE4F65726EF20EC4B037D98C7D29C579)
Complete name : Bellflower.2011.LIMITED.BRRIP.X264.AC3.CrEwSaDe.mkv
Format : Matroska
File size : 698 MiB
Duration : 1h 46mn
Overall bit rate : 917 Kbps
Encoded date : UTC 2011-10-31 23:03:24
Writing application : mkvmerge v4.9.1 ('Ich will') built on Jul 11 2011 23:53:15
Writing library : libebml v1.2.1 + libmatroska v1.1.1

Video
ID : 1
Format : AVC
Format/Info : Advanced Video Codec
Format profile : [email protected]
Format settings, CABAC : Yes
Format settings, ReFrames : 4 frames
Codec ID : V_MPEG4/ISO/AVC
Duration : 1h 46mn
Bit rate : 787 Kbps
Width : 720 pixels
Height : 304 pixels
Display aspect ratio : 2.35:1
Frame rate : 23.976 fps
Color space : YUV
Chroma subsampling : 4:2:0
Bit depth : 8 bits
Scan type : Progressive
Bits/(Pixel*Frame) : 0.150
Stream size : 587 MiB (84%)
Writing library : x264 core 116 r2074 2641b9e
Encoding settings : cabac=1 / ref=3 / deblock=1:-1:-1 / analyse=0x3:0x113 / me=hex / subme=7 / psy=1 / psy_rd=1.00:0.15 / mixed_ref=1 / me_range=16 / chroma_me=1 / trellis=1 / 8x8dct=1 / cqm=0 / deadzone=21,11 / fast_pskip=1 / chroma_qp_offset=-3 / threads=6 / sliced_threads=0 / nr=0 / decimate=1 / interlaced=0 / bluray_compat=0 / constrained_intra=0 / bframes=3 / b_pyramid=2 / b_adapt=1 / b_bias=0 / direct=1 / weightb=1 / open_gop=0 / weightp=2 / keyint=250 / keyint_min=23 / scenecut=40 / intra_refresh=0 / rc_lookahead=40 / rc=2pass / mbtree=1 / bitrate=787 / ratetol=1.0 / qcomp=0.60 / qpmin=10 / qpmax=51 / qpstep=4 / cplxblur=20.0 / qblur=0.5 / ip_ratio=1.40 / aq=1:1.00

Audio
ID : 2
Format : AC-3
Format/Info : Audio Coding 3
Mode extension : CM (complete main)
Codec ID : A_AC3
Duration : 1h 46mn
Bit rate mode : Constant
Bit rate : 128 Kbps
Channel(s) : 6 channels
Channel positions : Front: L C R, Side: L R, LFE
Sampling rate : 48.0 KHz
Bit depth : 16 bits
Compression mode : Lossy
Stream size : 97.5 MiB (14%)