Hide 2011 DVDRiP XViD-USM

iNFo:
http://www.imdb.com/title/tt1826689/
General
Complete name : Hide_2011_DVRiP_AC3_XViD_-_U.S.M.avi
Format : AVI
Format/Info : Audio Video Interleave
File size : 845 MiB
Duration : 1h 23mn
Overall bit rate : 1 411 Kbps
Movie name : HIDE.Title2.DVDRip
Writing application : Lavf52.78.4
Original source form/Name : HIDE

Video
ID : 0
Format : MPEG-4 Visual
Format profile : Advanced [email protected]
Format settings, BVOP : 2
Format settings, QPel : No
Format settings, GMC : No warppoints
Format settings, Matrix : Default (H.263)
Muxing mode : Packed bitstream
Codec ID : XVID
Codec ID/Hint : XviD
Duration : 1h 23mn
Bit rate : 953 Kbps
Width : 720 pixels
Height : 404 pixels
Display aspect ratio : 16:9
Frame rate : 23.976 fps
Color space : YUV
Chroma subsampling : 4:2:0
Bit depth : 8 bits
Scan type : Progressive
Compression mode : Lossy
Bits/(Pixel*Frame) : 0.137
Stream size : 570 MiB (67%)
Writing library : XviD 1.2.1 (UTC 2008-12-04)

Audio
ID : 1
Format : AC-3
Format/Info : Audio Coding 3
Mode extension : CM (complete main)
Codec ID : 2000
Duration : 1h 23mn
Bit rate mode : Constant
Bit rate : 448 Kbps
Channel(s) : 6 channels
Channel positions : Front: L C R, Side: L R, LFE
Sampling rate : 48.0 KHz
Bit depth : 16 bits
Compression mode : Lossy
Stream size : 268 MiB (32%)
Alignment : Aligned on interleaves
Interleave, duration : 32 ms (0.77 video frame)
Interleave, preload duration : 32 ms


1-LINK:
http://www.filesonic.com/file/284964...3.XViD-USM.avi
Or
http://www.wupload.com/file/17833273...3.XViD-USM.avi
Or
http://www.filesonic.com/file/285135...iD-USM.avi.rar
Or
http://www.fileserve.com/file/Zd6Vs8...iD-USM.avi.rar
Please-Say-Thanks-To-Keep-The-Topic-Alive.