The Rum Diary 2011 Cam XViD-DTRG

iNFo:
http://www.imdb.com/title/tt0376136/
Format : AVI
Format/Info : Audio Video Interleave
File size : 1.09 GiB
Duration : 1h 50mn
Overall bit rate : 1 407 Kbps
Writing library : VirtualDub build 32842/release

Video
ID : 0
Format : MPEG-4 Visual
Format profile : Advanced [email protected]
Format settings, BVOP : 2
Format settings, QPel : No
Format settings, GMC : No warppoints
Format settings, Matrix : Default (H.263)
Muxing mode : Packed bitstream
Codec ID : XVID
Codec ID/Hint : XviD
Duration : 1h 50mn
Bit rate : 1 269 Kbps
Width : 672 pixels
Height : 368 pixels
Display aspect ratio : 16:9
Frame rate : 25.000 fps
Color space : YUV
Chroma subsampling : 4:2:0
Bit depth : 8 bits
Scan type : Progressive
Compression mode : Lossy
Bits/(Pixel*Frame) : 0.205
Stream size : 1 002 MiB (90%)
Writing library : XviD 64

Audio
ID : 1
Format : MPEG Audio
Format version : Version 1
Format profile : Layer 3
Mode : Joint stereo
Mode extension : MS Stereo
Codec ID : 55
Codec ID/Hint : MP3
Duration : 1h 50mn
Bit rate mode : Constant
Bit rate : 128 Kbps
Channel(s) : 2 channels
Sampling rate : 44.1 KHz
Compression mode : Lossy
Stream size : 101 MiB (9%)
Alignment : Split accross interleaves
Interleave, duration : 40 ms (1.00 video frame)
Interleave, preload duration : 500 ms
Writing library : LAME3.98r
Encoding settings : -m j -V 4 -q 2 -lowpass 17 -b 128




1-LINK:
http://www.filesonic.com/file/283753..._XViD_DTRG.avi
Or
http://www.wupload.com/file/17570143..._XViD_DTRG.avi
Or
http://www.filesonic.com/file/283760..._XViD_DTRG.rar
Or
http://www.fileserve.com/file/3fsyBJ..._XViD_DTRG.rar

450mb-iNTERCHANGEABLE:
http://www.wupload.com/file/17572983....avi.part1.rar
http://www.wupload.com/file/17572990....avi.part2.rar
http://www.wupload.com/file/17572863....avi.part3.rar
Or
http://www.filesonic.com/file/283759....avi.part1.rar
http://www.filesonic.com/file/283759....avi.part2.rar
http://www.filesonic.com/file/283759....avi.part3.rar
Or
http://www.fileserve.com/file/C6T6qs....avi.part1.rar
http://www.fileserve.com/file/wAs9Pw....avi.part2.rar
http://www.fileserve.com/file/dwjBzk....avi.part3.rar
Please-Say-Thanks-To-Keep-The-Topic-Alive.