The.Change.Up.2011.DvDRip.XviD-GoldenXD



IMDB :
http://www.imdb.com/title/tt1488555/



Synopsis:
Plot: A comedy in which a married father accidentally switches bodies with his best friend, leading to a series of wildly complex difficulties.
Wupload :
http://www.wupload.com/file/17704100....avi.part1.rar
http://www.wupload.com/file/17709244....avi.part2.rar

Fileserve :
http://www.fileserve.com/file/NJY5kq....avi.part1.rar
http://www.fileserve.com/file/vzQjxq....avi.part2.rar

Filejungle :
http://www.filejungle.com/f/ph8jJ8/T....avi.part1.rar
http://www.filejungle.com/f/KHSKEX/T....avi.part2.rar

Filesonic :
http://www.filesonic.com/file/284232....avi.part1.rar
http://www.filesonic.com/file/284232....avi.part2.rar

PLEASE REPLY IF YOU LIKE MY POST!

SCREENSHOT :


NFO :
General
Complete name : The.Change.Up.2011.DvDRip.XviD-GoldenXD.avi
Format : AVI
Format/Info : Audio Video Interleave
File size : 1.37 GiB
Duration : 1h 52mn
Overall bit rate : 1 739 Kbps
Writing application : VirtualDubMod 1.5.4.1 (build 2178/release)
Writing library : VirtualDubMod build 2178/release

Video
ID : 0
Format : MPEG-4 Visual
Format profile : Advanced [email protected]
Format settings, BVOP : 1
Format settings, QPel : No
Format settings, GMC : No warppoints
Format settings, Matrix : Custom
Codec ID : XVID
Codec ID/Hint : XviD
Duration : 1h 52mn
Bit rate : 1 285 Kbps
Width : 720 pixels
Height : 304 pixels
Display aspect ratio : 2.35:1
Frame rate : 23.976 fps
Color space : YUV
Chroma subsampling : 4:2:0
Bit depth : 8 bits
Scan type : Progressive
Compression mode : Lossy
Bits/(Pixel*Frame) : 0.245
Stream size : 1.01 GiB (74%)
Writing library : XviD 1.2.0.dev47 (UTC 2006-11-01)

Audio
ID : 1
Format : AC-3
Format/Info : Audio Coding 3
Mode extension : CM (complete main)
Codec ID : 2000
Duration : 1h 52mn
Bit rate mode : Constant
Bit rate : 448 Kbps
Channel(s) : 6 channels
Channel positions : Front: L C R, Side: L R, LFE
Sampling rate : 48.0 KHz
Bit depth : 16 bits
Compression mode : Lossy
Delay relative to video : 7ms
Stream size : 361 MiB (26%)
Alignment : Split accross interleaves
Interleave, duration : 96 ms (2.30 video frames)
Interleave, preload duration : 96 ms
Language : English