Goyas.Ghosts.2006.m720p.BluRay.x264.Jewelraz



IMDB :
http://www.imdb.com/title/tt0455957/



Synopsis:
Painter Francisco Goya faces a scandal involving his muse, who is labeled a heretic by a monk.
Wupload :
http://www.wupload.com/file/17700566....mkv.part1.rar
http://www.wupload.com/file/17700739....mkv.part2.rar
http://www.wupload.com/file/17701259....mkv.part3.rar

Fileserve :
http://www.fileserve.com/file/37jpKm....mkv.part1.rar
http://www.fileserve.com/file/SgBf39....mkv.part2.rar
http://www.fileserve.com/file/hqbAEy....mkv.part3.rar

Filejungle :
http://www.filejungle.com/f/sESyyS/G....mkv.part1.rar
http://www.filejungle.com/f/96urkM/G....mkv.part2.rar
http://www.filejungle.com/f/NRAWey/G....mkv.part3.rar

Filesonic :
http://www.filesonic.com/file/284209....mkv.part1.rar
http://www.filesonic.com/file/284210....mkv.part2.rar
http://www.filesonic.com/file/284210....mkv.part3.rar

PLEASE REPLY IF YOU LIKE MY POST!

SCREENSHOT :


NFO :
Release Name: Goyas.Ghosts.2006.m720p.Bluray.x264.Jewelraz
Filesize: 2.70 GB
Runtime: 1hr 53min 50sec
Bitrate: 3400 kbps
Audio codec: AC3, 48khz, 5:1
Resolution: 1280*688
FPS: 23.98
Language: English
Subtitle: None
Source: 720p Bluray

Encoded date : UTC 2011-10-31 10:14:25
Writing application : mkvmerge v5.0.0 ('Die Wahre Liebe') built on Sep 25 2011 20:33:49
Writing library : libebml v1.2.2 + libmatroska v1.3.0

Video
ID : 1
Format : AVC
Format/Info : Advanced Video Codec
Format profile : [email protected]
Format settings, CABAC : Yes
Format settings, ReFrames : 9 frames
Muxing mode : Header stripping
Codec ID : V_MPEG4/ISO/AVC
Duration : 1h 53mn
Bit rate : 3 014 Kbps
Width : 1 280 pixels
Height : 688 pixels
Display aspect ratio : 1.860
Frame rate : 23.976 fps
Color space : YUV
Chroma subsampling : 4:2:0
Bit depth : 8 bits
Scan type : Progressive
Bits/(Pixel*Frame) : 0.143
Stream size : 2.34 GiB (87%)
Writing library : x264 core 116 r2074 2641b9e


Audio
ID : 2
Format : AC-3
Format/Info : Audio Coding 3
Mode extension : CM (complete main)
Muxing mode : Header stripping
Codec ID : A_AC3
Duration : 1h 53mn
Bit rate mode : Constant
Bit rate : 384 Kbps
Channel(s) : 6 channels
Channel positions : Front: L C R, Side: L R, LFE
Sampling rate : 48.0 KHz
Bit depth : 16 bits
Compression mode : Lossy
Stream size : 313 MiB (11%)