Tomorrow.When.The.War.Began.2011.DvDRip-aTLas



IMDB :
http://www.imdb.com/title/tt1456941/



Synopsis:
When their country is invaded and their families are taken, eight unlikely high school teenagers band together to fight.
Wupload :
http://www.wupload.com/file/17685727...-aTLas.avi.rar

Fileserve :
http://www.fileserve.com/file/SkuDSX...-aTLas.avi.rar

Filejungle :
http://www.filejungle.com/f/yyTaKf/T...-aTLas.avi.rar

Filesonic :
http://www.filesonic.com/file/284145...-aTLas.avi.rar

PLEASE REPLY IF YOU LIKE MY POST!

SCREENSHOT :


NFO :
General
Complete name : Tomorrow.When.The.War.Began.2011.DvDRip-aTLas.avi
Format : AVI
Format/Info : Audio Video Interleave
File size : 696 MiB
Duration : 1h 39mn
Overall bit rate : 974 Kbps

Video
ID : 0
Format : MPEG-4 Visual
Format profile : Advanced [email protected]
Format settings, BVOP : 2
Format settings, QPel : No
Format settings, GMC : No warppoints
Format settings, Matrix : Default (MPEG)
Codec ID : XVID
Codec ID/Hint : XviD
Duration : 1h 39mn
Bit rate : 856 Kbps
Width : 688 pixels
Height : 288 pixels
Display aspect ratio : 2.40:1
Frame rate : 25.000 fps
Color space : YUV
Chroma subsampling : 4:2:0
Bit depth : 8 bits
Scan type : Progressive
Compression mode : Lossy
Bits/(Pixel*Frame) : 0.173
Stream size : 612 MiB (88%)
Writing library : XviD 1.2.1 (UTC 2008-12-04)

Audio
ID : 1
Format : MPEG Audio
Format version : Version 1
Format profile : Layer 3
Mode : Joint stereo
Mode extension : MS Stereo
Codec ID : 55
Codec ID/Hint : MP3
Duration : 1h 39mn
Bit rate mode : Constant
Bit rate : 112 Kbps
Channel(s) : 2 channels
Sampling rate : 44.1 KHz
Compression mode : Lossy
Stream size : 79.9 MiB (11%)
Alignment : Aligned on interleaves
Interleave, duration : 160 ms (4.01 video frames)
Interleave, preload duration : 208 ms
Title : VTS_03_1 T80 3_2ch 448Kbps DELAY 0ms
Writing library : LAME3.99
Encoding settings : -m j -V 4 -q 2 -lowpass 15.6 -b 112