The.Change.Up.2011.DVDRip.XViD-EXT



IMDB :
http://www.imdb.com/title/tt1488555/



Synopsis:
A comedy in which a married father accidentally switches bodies with his best friend, leading to a series of wildly complex difficulties.
Wupload :
http://www.wupload.com/file/17684677...iD-EXT.avi.rar

Fileserve :
http://www.fileserve.com/file/2PgmxS...iD-EXT.avi.rar

Filejungle :
http://www.filejungle.com/f/fevrDq/T...iD-EXT.avi.rar

Filesonic :
http://www.filesonic.com/file/284145...iD-EXT.avi.rar

PLEASE REPLY IF YOU LIKE MY POST!

SCREENSHOT :


NFO :
General
Complete name : The.Change.Up.2011.DVDRip.XViD-EXT.avi
Format : AVI
Format/Info : Audio Video Interleave
File size : 800 MiB
Duration : 1h 52mn
Overall bit rate : 993 Kbps
Writing application : FairUse Wizard - http://fairusewizard.com
Writing library : The best and REALLY easy backup tool

Video
ID : 0
Format : MPEG-4 Visual
Format profile : Advanced [email protected]
Format settings, BVOP : 1
Format settings, QPel : No
Format settings, GMC : No warppoints
Format settings, Matrix : Default (MPEG)
Muxing mode : Packed bitstream
Codec ID : XVID
Codec ID/Hint : XviD
Duration : 1h 52mn
Bit rate : 854 Kbps
Width : 512 pixels
Height : 288 pixels
Display aspect ratio : 16:9
Frame rate : 29.970 fps
Color space : YUV
Chroma subsampling : 4:2:0
Bit depth : 8 bits
Scan type : Progressive
Compression mode : Lossy
Bits/(Pixel*Frame) : 0.193
Stream size : 687 MiB (86%)
Writing library : XviD 1.2.0.dev47 (UTC 2006-11-01)

Audio
ID : 1
Format : MPEG Audio
Format version : Version 1
Format profile : Layer 3
Mode : Joint stereo
Codec ID : 55
Codec ID/Hint : MP3
Duration : 1h 52mn
Bit rate mode : Constant
Bit rate : 128 Kbps
Channel(s) : 2 channels
Sampling rate : 48.0 KHz
Compression mode : Lossy
Stream size : 103 MiB (13%)
Alignment : Aligned on interleaves
Interleave, duration : 33 ms (1.00 video frame)
Interleave, preload duration : 504 ms
Writing library : LAME3.97
Encoding settings : -m j -V 4 -q 2 -lowpass 17 -b 128