Boy.Toy.2011.DVDRiP.XViD-SAM



IMDB :
http://www.imdb.com/title/tt1051213/



Synopsis:
Plot: An unsuccessful underwear model gears up for the role of his life.
Wupload :
http://www.wupload.com/file/17681482...iD-SAM.avi.rar

Fileserve :
http://www.fileserve.com/file/rFPppW...iD-SAM.avi.rar

Filejungle :
http://www.filejungle.com/f/N6xshP/B...iD-SAM.avi.rar

Filesonic :
http://www.filesonic.com/file/284144...iD-SAM.avi.rar

PLEASE REPLY IF YOU LIKE MY POST!

SCREENSHOT :


NFO :
General
Complete name : Boy.Toy.2011.DVDRiP.XViD-SAM.avi
Format : AVI
Format/Info : Audio Video Interleave
File size : 699 MiB
Duration : 1h 30mn
Overall bit rate : 1 078 Kbps
Writing library : VirtualDub build 32842/release
Copyright : SaM

Video
ID : 0
Format : MPEG-4 Visual
Format profile : Advanced [email protected]
Format settings, BVOP : 4
Format settings, QPel : No
Format settings, GMC : No warppoints
Format settings, Matrix : Default (MPEG)
Muxing mode : Packed bitstream
Codec ID : XVID
Codec ID/Hint : XviD
Duration : 1h 30mn
Bit rate : 941 Kbps
Width : 640 pixels
Height : 352 pixels
Display aspect ratio : 16:9
Frame rate : 23.976 fps
Color space : YUV
Chroma subsampling : 4:2:0
Bit depth : 8 bits
Scan type : Progressive
Compression mode : Lossy
Bits/(Pixel*Frame) : 0.174
Stream size : 610 MiB (87%)
Writing library : XviD 62

Audio
ID : 1
Format : MPEG Audio
Format version : Version 1
Format profile : Layer 3
Mode : Joint stereo
Mode extension : MS Stereo
Codec ID : 55
Codec ID/Hint : MP3
Duration : 1h 30mn
Bit rate mode : Constant
Bit rate : 128 Kbps
Channel(s) : 2 channels
Sampling rate : 48.0 KHz
Compression mode : Lossy
Stream size : 82.9 MiB (12%)
Alignment : Split accross interleaves
Interleave, duration : 42 ms (1.00 video frame)
Interleave, preload duration : 500 ms
Writing library : LAME3.98r
Encoding settings : -m j -V 4 -q 3 -lowpass 17 -b 128