Boy.Toy.2011.DVDRIP.X64.AC3.CrEwSaDe



IMDB :
http://www.imdb.com/title/tt1051213/



Synopsis:
Jake: an unsuccessful – yet well endowed – underwear model in L.A, who finds a lucrative new line of work as a platonic escort for women of a certain age. But, just as he finds himself a deep-pocketed “sugar mama” in Barbra, he meets Norah: a stunning and laid back Yoga instructor. As Jake’s success blooms, so does his love life; leading him to a crossroad that will change everything.
Wupload :
http://www.wupload.com/file/17643524...EwSaDe.mkv.rar

Fileserve :
http://www.fileserve.com/file/VyezQf...EwSaDe.mkv.rar

Filejungle :
http://www.filejungle.com/f/ENBcP6/B...EwSaDe.mkv.rar

Filesonic :
http://www.filesonic.com/file/283980...EwSaDe.mkv.rar

PLEASE REPLY IF YOU LIKE MY POST!

SCREENSHOT :


NFO :
Release Brought to you by CrEwSaDe


***********************************************************************************************

*Boy.Toy.2011.DVDRIP.X264.AC3.CrEwSaDe**

***********************************************************************************************

Encoder ..........: Crazycook
Video Codec.......: AVC
Video Bitrate.....: 884 Kbps
Audio Codec.......: AC3
Audio Bitrate.....: 192 kbs, 6 channels
Resolution........: 720X400, 23.9765 fps
Runtime...........: 1h 30mn
Release Date......: 30 Oct. 2011
Theatre Date......: n/a
Language..........: English
Subtitles.........: n/a
IMDB Rating.......: n/a
IMDb URL..........: http://www.imdb.com/title/tt1051213/

General
Unique ID : 203247391261975496385465955661407718495 (0x98E80610E02DC6908079700119AE0C5F)
Complete name : D:\torrent data\Boy.Toy.2011.DVDRIP.X264.AC3.CrEwSaDe\Boy.Toy.2011.DVDRIP.X64.AC3.CrEwSaDe.mkv
Format : Matroska
Format version : Version 2
File size : 698 MiB
Duration : 1h 30mn
Overall bit rate : 1 077 Kbps
Encoded date : UTC 2011-10-31 00:35:17
Writing application : mkvmerge v5.0.1 ('Es ist Sommer') built on Oct 9 2011 11:55:43
Writing library : libebml v1.2.2 + libmatroska v1.3.0

Video
ID : 1
Format : AVC
Format/Info : Advanced Video Codec
Format profile : [email protected]
Format settings, CABAC : Yes
Format settings, ReFrames : 5 frames
Codec ID : V_MPEG4/ISO/AVC
Duration : 1h 30mn
Bit rate : 884 Kbps
Width : 720 pixels
Height : 400 pixels
Display aspect ratio : 16:9
Frame rate : 23.976 fps
Color space : YUV
Chroma subsampling : 4:2:0
Bit depth : 8 bits
Scan type : Progressive
Bits/(Pixel*Frame) : 0.128
Stream size : 560 MiB (80%)
Writing library : x264 core 119 r2106 07efeb4
Encoding settings : cabac=1 / ref=5 / deblock=1:-1:-1 / analyse=0x3:0x133 / me=umh / subme=6 / psy=1 / psy_rd=1.00:0.00 / mixed_ref=1 / me_range=16 / chroma_me=1 / trellis=2 / 8x8dct=1 / cqm=0 / deadzone=21,11 / fast_pskip=1 / chroma_qp_offset=-2 / threads=12 / sliced_threads=0 / nr=0 / decimate=1 / interlaced=0 / bluray_compat=0 / constrained_intra=0 / bframes=3 / b_pyramid=2 / b_adapt=2 / b_bias=0 / direct=3 / weightb=1 / open_gop=0 / weightp=2 / keyint=250 / keyint_min=23 / scenecut=40 / intra_refresh=0 / rc_lookahead=40 / rc=2pass / mbtree=1 / bitrate=884 / ratetol=1.0 / qcomp=0.60 / qpmin=10 / qpmax=51 / qpstep=4 / cplxblur=20.0 / qblur=0.5 / ip_ratio=1.40 / aq=1:1.00

Audio
ID : 2
Format : AC-3
Format/Info : Audio Coding 3
Mode extension : CM (complete main)
Codec ID : A_AC3
Duration : 1h 30mn
Bit rate mode : Constant
Bit rate : 192 Kbps
Channel(s) : 6 channels
Channel positions : Front: L C R, Side: L R, LFE
Sampling rate : 48.0 KHz
Bit depth : 16 bits
Compression mode : Lossy
Stream size : 124 MiB (18%)

SOURCES:

VIDEO: Boy Toy (2011) DVD5 / NTSC Thanks
AUDIO: Boy Toy (2011) DVD5 / NTSC Thanks

Plot: An unsuccessful underwear model gears up for the role of his life.