Hide 2011 DVDRiP AC3 XViD-USM



IMDB :
http://www.imdb.com/title/tt1826689/



Synopsis:
Chesterfield High School basketball practice has ended. One year later the town is still reeling from the massacre of a brutal mischief night murder, but even the statewide curfew won\’t stop these teens from pulling pranks on Hallow\’s Eve. Susie Hauser, head cheerleader along with her teenage friends are lured by a psychopath to play a revengeful game of hide and seek on this anniversary night. For a high school senior and her friends, the childhood classic becomes a deadly game of survival. Who will play? Has one of their own turned on them? Who will hide and who will seek?
Wupload :
http://www.wupload.com/file/17635315..._U.S.M.avi.rar

Fileserve :
http://www.fileserve.com/file/6RVHV8..._U.S.M.avi.rar

Filejungle :
http://www.filejungle.com/f/KEbcQ8/H..._U.S.M.avi.rar

Filesonic :
http://www.filesonic.com/file/283940..._U.S.M.avi.rar

PLEASE REPLY IF YOU LIKE MY POST!

SCREENSHOT :


NFO :
General
Complete name : Hide_2011_DVRiP_AC3_XViD_-_U.S.M.avi
Format : AVI
Format/Info : Audio Video Interleave
File size : 845 MiB
Duration : 1h 23mn
Overall bit rate : 1 411 Kbps
Movie name : HIDE.Title2.DVDRip
Writing application : Lavf52.78.4
Original source form/Name : HIDE

Video
ID : 0
Format : MPEG-4 Visual
Format profile : Advanced [email protected]
Format settings, BVOP : 2
Format settings, QPel : No
Format settings, GMC : No warppoints
Format settings, Matrix : Default (H.263)
Muxing mode : Packed bitstream
Codec ID : XVID
Codec ID/Hint : XviD
Duration : 1h 23mn
Bit rate : 953 Kbps
Width : 720 pixels
Height : 404 pixels
Display aspect ratio : 16:9
Frame rate : 23.976 fps
Color space : YUV
Chroma subsampling : 4:2:0
Bit depth : 8 bits
Scan type : Progressive
Compression mode : Lossy
Bits/(Pixel*Frame) : 0.137
Stream size : 570 MiB (67%)
Writing library : XviD 1.2.1 (UTC 2008-12-04)

Audio
ID : 1
Format : AC-3
Format/Info : Audio Coding 3
Mode extension : CM (complete main)
Codec ID : 2000
Duration : 1h 23mn
Bit rate mode : Constant
Bit rate : 448 Kbps
Channel(s) : 6 channels
Channel positions : Front: L C R, Side: L R, LFE
Sampling rate : 48.0 KHz
Bit depth : 16 bits
Compression mode : Lossy
Stream size : 268 MiB (32%)
Alignment : Aligned on interleaves
Interleave, duration : 32 ms (0.77 video frame)
Interleave, preload duration : 32 ms