Call.Me.Mrs.Miracle.2010.480p.DVDRip.Xvid.AC3-Freebee



IMDB :
http://www.imdb.com/title/tt1708459/



Synopsis:
No one celebrates the holidays like Emily Merkle (Doris Roberts) or Mrs. Miracle as she is known by some who is back to ensure that this Christmas is the most magical and meaningful of all. When Mrs. Miracle appears as a seasonal employee in the toy department at the financially troubled Finleys Department Store, neither the stores owners, nor the customers, have any idea of the events that are about to unfold. Just when it seemed Christmas might not come at all this year, Finleys favorite employee proves they dont call her Mrs. Miracle for nothing! Also starring Jewel Staite, Eric Johnson and Lauren Holly.
Wupload :
http://www.wupload.com/file/16667203....avi.part1.rar
http://www.wupload.com/file/16667212....avi.part2.rar

Fileserve :
http://www.fileserve.com/file/uer6rH....avi.part1.rar
http://www.fileserve.com/file/qzXMVP....avi.part2.rar

Filejungle :
http://www.filejungle.com/f/XJdTht/C....avi.part1.rar
http://www.filejungle.com/f/V8aB2B/C....avi.part2.rar

Filesonic :
http://www.filesonic.com/file/282548....avi.part1.rar
http://www.filesonic.com/file/282548....avi.part2.rar

PLEASE REPLY IF YOU LIKE MY POST!

SCREENSHOT :


NFO :
General
Complete name : Call.Me.Mrs.Miracle.2010.480p.DVDRip.Xvid.AC3-Freebee.avi
Format : AVI
Format/Info : Audio Video Interleave
Format profile : OpenDML
Format settings : rec
File size : 1.20 GiB
Duration : 1h 27mn
Overall bit rate : 1 949 Kbps
Writing application : AVI-Mux GUI 1.17.8.3, Feb 16 201019:42:50

Video
ID : 0
Format : MPEG-4 Visual
Format profile : Advanced [email protected]
Format settings, BVOP : 2
Format settings, QPel : No
Format settings, GMC : No warppoints
Format settings, Matrix : Custom
Codec ID : XVID
Codec ID/Hint : XviD
Duration : 1h 27mn
Bit rate : 1 495 Kbps
Width : 720 pixels
Height : 400 pixels
Display aspect ratio : 16:9
Frame rate : 23.976 fps
Color space : YUV
Chroma subsampling : 4:2:0
Bit depth : 8 bits
Scan type : Progressive
Compression mode : Lossy
Bits/(Pixel*Frame) : 0.217
Stream size : 940 MiB (77%)
Writing library : XviD 64

Audio
ID : 1
Format : AC-3
Format/Info : Audio Coding 3
Mode extension : CM (complete main)
Codec ID : 2000
Duration : 1h 27mn
Bit rate mode : Constant
Bit rate : 448 Kbps
Channel(s) : 5 channels
Channel positions : Front: L C R, Side: L R
Sampling rate : 48.0 KHz
Bit depth : 16 bits
Compression mode : Lossy
Stream size : 282 MiB (23%)
Alignment : Aligned on interleaves
Interleave, duration : 64 ms (1.53 video frames)
Interleave, preload duration : 512 ms
Title : VTS_02_1 T80 3_2ch 448Kbps DELAY -49ms

Text
ID : 2
Stream size : 111 KiB (0%)
Title : english