Another.Earth.m720p.Bluray.x264.Jewelraz



IMDB :
http://www.imdb.com/title/tt1549572/



Synopsis:
Rhoda Williams, a bright young woman accepted into MIT’s astrophysics program, aspires to explore the cosmos. A brilliant composer, John Burroughs, has just reached the pinnacle of his profession and is about to have a second child with his loving wife. On the eve of the discovery of a duplicate Earth, tragedy strikes and the lives of these strangers become irrevocably intertwined. Estranged from the world and the selves they once knew, the two outsiders begin an unlikely love affair and reawaken to life. But when one is presented with the chance of a lifetime opportunity to travel to the other Earth and embrace an alternative reality, which new life will they choose?
Wupload :
http://www.wupload.com/file/15649742....mkv.part1.rar
http://www.wupload.com/file/15654972....mkv.part2.rar
http://www.wupload.com/file/15650733....mkv.part3.rar
http://www.wupload.com/file/15649982....mkv.part4.rar
http://www.wupload.com/file/15650707....mkv.part5.rar

Fileserve :
http://www.fileserve.com/file/RuPFjk....mkv.part1.rar
http://www.fileserve.com/file/TpvJCV....mkv.part2.rar
http://www.fileserve.com/file/Gf4UDQ....mkv.part3.rar
http://www.fileserve.com/file/Z3PMkr....mkv.part4.rar
http://www.fileserve.com/file/WAZPZC....mkv.part5.rar

Filejungle :
http://www.filejungle.com/f/KBPu8d/A....mkv.part1.rar
http://www.filejungle.com/f/ACbHbx/A....mkv.part2.rar
http://www.filejungle.com/f/Qf2DNz/A....mkv.part3.rar
http://www.filejungle.com/f/B4tguR/A....mkv.part4.rar
http://www.filejungle.com/f/AfTjgM/A....mkv.part5.rar

Filesonic :
http://www.filesonic.com/file/281921....mkv.part1.rar
http://www.filesonic.com/file/281922....mkv.part2.rar
http://www.filesonic.com/file/281921....mkv.part3.rar
http://www.filesonic.com/file/281935....mkv.part4.rar
http://www.filesonic.com/file/281935....mkv.part5.rar

PLEASE REPLY IF YOU LIKE MY POST!

SCREENSHOT :


NFO :
Encoded date : UTC 2011-10-29 04:14:15
Writing application : mkvmerge v5.0.0 ('Die Wahre Liebe') built on Sep 25 2011 20:33:49
Writing library : libebml v1.2.2 + libmatroska v1.3.0

Video
ID : 1
Format : AVC
Format/Info : Advanced Video Codec
Format profile : [email protected]
Format settings, CABAC : Yes
Format settings, ReFrames : 9 frames
Muxing mode : Header stripping
Codec ID : V_MPEG4/ISO/AVC
Bit rate : 3 738 Kbps
Width : 1 280 pixels
Height : 692 pixels
Display aspect ratio : 1.850
Frame rate : 23.976 fps
Color space : YUV
Chroma subsampling : 4:2:0
Bit depth : 8 bits
Scan type : Progressive
Bits/(Pixel*Frame) : 0.176
Stream size : 17.9 MiB (89%)

Audio
ID : 2
Format : AC-3
Format/Info : Audio Coding 3
Mode extension : CM (complete main)
Muxing mode : Header stripping
Codec ID : A_AC3
Duration : 40s 64ms
Bit rate mode : Constant
Bit rate : 384 Kbps
Channel(s) : 6 channels
Channel positions : Front: L C R, Side: L R, LFE
Sampling rate : 48.0 KHz
Bit depth : 16 bits
Compression mode : Lossy
Stream size : 1.83 MiB (9%)
Title : [email protected]