Black.Butterflies.2011.DVDRip.XviD.AC3.CrEwSaDe



IMDB :
http://www.imdb.com/title/tt0906778/



Synopsis:
She searched for a home, she searched for love. Confronted by Apartheid and a father who was Minister of censorship. With men like Jack Cope and Andre Brink she found much love, but no home. In his first speech to the South African Parliament Nelson Mandela read her poem “The Dead Child of Nyanga” and addresses her as one of the finest poets of South Africa.
Wupload :
http://www.wupload.com/file/14883755...3.CrEwSaDe.rar

Fileserve :
http://www.fileserve.com/file/7k2zWu...3.CrEwSaDe.rar

Filejungle :
http://www.filejungle.com/f/CgAqXa/B...3.CrEwSaDe.rar

Filesonic :
http://www.filesonic.com/file/281647...3.CrEwSaDe.rar

PLEASE REPLY IF YOU LIKE MY POST!

SCREENSHOT :


NFO :
General
Complete name : Black.Butterflies.2011.DVDRip.XviD.AC3.CrEwSaDe.avi
Format : AVI
Format/Info : Audio Video Interleave
File size : 698 MiB
Duration : 1h 35mn
Overall bit rate : 1 023 Kbps

Video
ID : 0
Format : MPEG-4 Visual
Format profile : Advanced [email protected]
Format settings, BVOP : 2
Format settings, QPel : No
Format settings, GMC : No warppoints
Format settings, Matrix : Default (H.263)
Codec ID : XVID
Codec ID/Hint : XviD
Duration : 1h 35mn
Bit rate : 887 Kbps
Width : 720 pixels
Height : 304 pixels
Display aspect ratio : 2.35:1
Frame rate : 25.000 fps
Color space : YUV
Chroma subsampling : 4:2:0
Bit depth : 8 bits
Scan type : Progressive
Compression mode : Lossy
Bits/(Pixel*Frame) : 0.162
Stream size : 606 MiB (87%)
Writing library : XviD 1.2.1 (UTC 2008-12-04)

Audio
ID : 1
Format : AC-3
Format/Info : Audio Coding 3
Mode extension : CM (complete main)
Codec ID : 2000
Duration : 1h 35mn
Bit rate mode : Constant
Bit rate : 128 Kbps
Channel(s) : 6 channels
Channel positions : Front: L C R, Side: L R, LFE
Sampling rate : 48.0 KHz
Bit depth : 16 bits
Compression mode : Lossy
Stream size : 87.4 MiB (13%)
Alignment : Aligned on interleaves
Interleave, duration : 64 ms (1.60 video frames)
Interleave, preload duration : 192 ms
Title : VTS_01_1 T81 3_2ch 448Kbps DELAY 0ms_new