TITLE



IMDB :
http://www.imdb.com/title/tt1549572/



Synopsis:
Rhoda Williams, a bright young woman accepted into MIT’s astrophysics program, aspires to explore the cosmos. A brilliant composer, John Burroughs, has just reached the pinnacle of his profession and is about to have a second child with his loving wife. On the eve of the discovery of a duplicate Earth, tragedy strikes and the lives of these strangers become irrevocably intertwined. Estranged from the world and the selves they once knew, the two outsiders begin an unlikely love affair and reawaken to life. But when one is presented with the chance of a lifetime opportunity to travel to the other Earth and embrace an alternative reality, which new life will they choose?
Wupload :
http://www.wupload.com/file/14761152....avi.part1.rar
http://www.wupload.com/file/14760190....avi.part2.rar
Or
http://www.wupload.com/file/14772827....avi.part1.rar
http://www.wupload.com/file/14772819....avi.part2.rar

Fileserve :
http://www.fileserve.com/file/KMbk7r....avi.part1.rar
http://www.fileserve.com/file/Axeas9....avi.part2.rar

Filejungle :
http://www.filejungle.com/f/pUNskG/A....avi.part1.rar
http://www.filejungle.com/f/RnTeKv/A....avi.part2.rar

Filesonic :
http://www.filesonic.com/file/281582....avi.part1.rar
http://www.filesonic.com/file/281582....avi.part2.rar

PLEASE REPLY IF YOU LIKE MY POST!

SCREENSHOT :


NFO :
General
Complete name : Another.Earth.2011.BRRip.XviD-OCW.avi
Format : AVI
Format/Info : Audio Video Interleave
File size : 1.00 GiB
Duration : 1h 32mn
Overall bit rate : 1 550 Kbps
Writing library : MPlayer

Video
ID : 0
Format : MPEG-4 Visual
Format profile : Advanced [email protected]
Format settings, BVOP : 2
Format settings, QPel : No
Format settings, GMC : No warppoints
Format settings, Matrix : Default (H.263)
Codec ID : XVID
Codec ID/Hint : XviD
Duration : 1h 32mn
Bit rate : 1 282 Kbps
Width : 640 pixels
Height : 352 pixels
Display aspect ratio : 16:9
Frame rate : 23.976 fps
Color space : YUV
Chroma subsampling : 4:2:0
Bit depth : 8 bits
Scan type : Progressive
Compression mode : Lossy
Bits/(Pixel*Frame) : 0.237
Stream size : 847 MiB (83%)
Writing library : XviD 63

Audio
ID : 1
Format : MPEG Audio
Format version : Version 1
Format profile : Layer 3
Mode : Joint stereo
Mode extension : MS Stereo
Codec ID : 55
Codec ID/Hint : MP3
Duration : 1h 32mn
Bit rate mode : Constant
Bit rate : 256 Kbps
Channel(s) : 2 channels
Sampling rate : 44.1 KHz
Compression mode : Lossy
Stream size : 169 MiB (17%)
Alignment : Aligned on interleaves
Interleave, duration : 26 ms (0.63 video frame)
Interleave, preload duration : 809 ms
Writing library : LAME3.98.4