Larry.Crowne.2011.720p.BRRiP.XViD.AC3-FLAW3SS



IMDB :
http://www.imdb.com/title/tt1583420/



Synopsis:
Plot: Until he was downsized, affable, amiable Larry Crowne (Hanks) was a superstar team leader at the big-box company where he’s worked since his time in the Navy. Underwater on his mortgage and unclear on what to do with his suddenly free days, Larry heads to his local college to start over. There he becomes part of a colorful community of outcasts, also-rans and the overlooked all trying to find a better future for themselves…often moving around town in a herd of scooters. In his public-speaking class, Larry develops an unexpected crush on his teacher Mercedes Tainot (Roberts), who has lost as much passion for teaching as she has for her husband. The simple guy who has every reason to think his life has stalled will come to learn an unexpected lesson: when you think everything worth having has passed you by, you just might discover your reason to live.
Wupload :
http://www.wupload.com/file/14450063....avi.part1.rar
http://www.wupload.com/file/14450063....avi.part2.rar
http://www.wupload.com/file/14450061....avi.part3.rar
http://www.wupload.com/file/14450063....avi.part4.rar
http://www.wupload.com/file/14450062....avi.part5.rar
http://www.wupload.com/file/14450063....avi.part6.rar

Fileserve :
http://www.fileserve.com/file/5WqFkA....avi.part1.rar
http://www.fileserve.com/file/8XREpB....avi.part2.rar
http://www.fileserve.com/file/NKmjCZ....avi.part3.rar
http://www.fileserve.com/file/JEnFAN....avi.part4.rar
http://www.fileserve.com/file/w827wg....avi.part5.rar
http://www.fileserve.com/file/xzhGNg....avi.part6.rar

Filejungle :
http://www.filejungle.com/f/u24MnR/L....avi.part1.rar
http://www.filejungle.com/f/b7z3yH/L....avi.part2.rar
http://www.filejungle.com/f/hYaGXh/L....avi.part3.rar
http://www.filejungle.com/f/2mY4Xv/L....avi.part4.rar
http://www.filejungle.com/f/yazcWZ/L....avi.part5.rar
http://www.filejungle.com/f/WuXtjC/L....avi.part6.rar

Filesonic :
http://www.filesonic.com/file/281516....avi.part1.rar
http://www.filesonic.com/file/281516....avi.part2.rar
http://www.filesonic.com/file/281516....avi.part3.rar
http://www.filesonic.com/file/281517....avi.part4.rar
http://www.filesonic.com/file/281517....avi.part5.rar
http://www.filesonic.com/file/281517....avi.part6.rar

PLEASE REPLY IF YOU LIKE MY POST!

SCREENSHOT :


NFO :
General
Complete name : Larry.Crowne.2011.720p.BRRiP.XViD.AC3-FLAW3SS.avi
Format : AVI
Format/Info : Audio Video Interleave
Format profile : OpenDML
File size : 2.73 GiB
Duration : 1h 38mn
Overall bit rate : 3 961 Kbps
Writing application : VirtualDubMod 1.5.10.2 (build 2540/release)
Writing library : VirtualDubMod build 2540/release

Video
ID : 0
Format : MPEG-4 Visual
Format profile : Advanced [email protected]
Format settings, BVOP : 2
Format settings, QPel : No
Format settings, GMC : No warppoints
Format settings, Matrix : Default (H.263)
Codec ID : XVID
Codec ID/Hint : XviD
Duration : 1h 38mn
Bit rate : 3 502 Kbps
Width : 1 280 pixels
Height : 536 pixels
Display aspect ratio : 2.40:1
Frame rate : 23.976 fps
Color space : YUV
Chroma subsampling : 4:2:0
Bit depth : 8 bits
Scan type : Progressive
Compression mode : Lossy
Bits/(Pixel*Frame) : 0.213
Stream size : 2.41 GiB (88%)
Writing library : XviD 1.2.1 (UTC 2008-12-04)

Audio
ID : 1
Format : AC-3
Format/Info : Audio Coding 3
Mode extension : CM (complete main)
Codec ID : 2000
Duration : 1h 38mn
Bit rate mode : Constant
Bit rate : 448 Kbps
Channel(s) : 6 channels
Channel positions : Front: L C R, Side: L R, LFE
Sampling rate : 48.0 KHz
Bit depth : 16 bits
Compression mode : Lossy
Stream size : 316 MiB (11%)
Alignment : Split accross interleaves
Interleave, duration : 42 ms (1.00 video frame)
Interleave, preload duration : 500 ms