Chasing Birds 2008 DVDRip XviD-aAF



IMDB :
http://www.imdb.com/title/tt1798118/



Synopsis:
Plot: Follow three teams – the Hunter Thickheads, the Hunter Home-Brewers and the Whacked-Out Woodswallows as they travel up to 500 kilometres from the desert to the sea – in their attempt to spot more species than any other team.
Wupload :
http://www.wupload.com/file/13344769...p.xvid.avi.rar

Fileserve :
http://www.fileserve.com/file/jrG7wA...p.xvid.avi.rar

Filejungle :
http://www.filejungle.com/f/zAKe9m/a...p.xvid.avi.rar

Filesonic :
http://www.filesonic.com/file/278290...p.xvid.avi.rar

PLEASE REPLY IF YOU LIKE MY POST!

SCREENSHOT :


NFO :
General
Complete name : aaf-chasing.birds.2008.dvdrip.xvid.avi
Format : AVI
Format/Info : Audio Video Interleave
File size : 698 MiB
Duration : 54mn 19s
Overall bit rate mode : Variable
Overall bit rate : 1 796 Kbps
Writing application : VirtualDubMod 1.5.10.2 (build 2540/release)
Writing library : VirtualDubMod build 2540/release

Video
ID : 0
Format : MPEG-4 Visual
Format profile : Advanced [email protected]
Format settings, BVOP : 2
Format settings, QPel : No
Format settings, GMC : No warppoints
Format settings, Matrix : Default (H.263)
Codec ID : XVID
Codec ID/Hint : XviD
Duration : 54mn 19s
Bit rate : 1 650 Kbps
Width : 624 pixels
Height : 352 pixels
Display aspect ratio : 16:9
Frame rate : 25.000 fps
Color space : YUV
Chroma subsampling : 4:2:0
Bit depth : 8 bits
Scan type : Progressive
Compression mode : Lossy
Bits/(Pixel*Frame) : 0.300
Stream size : 641 MiB (92%)
Writing library : XviD 64

Audio
ID : 1
Format : MPEG Audio
Format version : Version 1
Format profile : Layer 3
Mode : Joint stereo
Codec ID : 55
Codec ID/Hint : MP3
Duration : 54mn 19s
Bit rate mode : Variable
Bit rate : 128 Kbps
Channel(s) : 2 channels
Sampling rate : 48.0 KHz
Compression mode : Lossy
Stream size : 51.9 MiB (7%)
Alignment : Aligned on interleaves
Interleave, duration : 24 ms (0.60 video frame)
Interleave, preload duration : 138 ms
Writing library : LAME3.90.
Encoding settings : -m j -V 4 -q 2 -lowpass 17.6 --abr 128