Larry.Crowne.2011.BRRip.XviD.AC3-FUSiON



IMDB :
http://www.imdb.com/title/tt1583420/



Synopsis:
Plot: Until he was downsized, affable, amiable Larry Crowne (Hanks) was a superstar team leader at the big-box company where he’s worked since his time in the Navy. Underwater on his mortgage and unclear on what to do with his suddenly free days, Larry heads to his local college to start over. There he becomes part of a colorful community of outcasts, also-rans and the overlooked all trying to find a better future for themselves…often moving around town in a herd of scooters. In his public-speaking class, Larry develops an unexpected crush on his teacher Mercedes Tainot (Roberts), who has lost as much passion for teaching as she has for her husband. The simple guy who has every reason to think his life has stalled will come to learn an unexpected lesson: when you think everything worth having has passed you by, you just might discover your reason to live.
Wupload :
http://www.wupload.com/file/13338093....avi.part1.rar
http://www.wupload.com/file/13343404....avi.part2.rar

Fileserve :
http://www.fileserve.com/file/7xgrY2....avi.part1.rar
http://www.fileserve.com/file/mCkFpW....avi.part2.rar

Filejungle :
http://www.filejungle.com/f/Vs4aBa/L....avi.part1.rar
http://www.filejungle.com/f/M4vQek/L....avi.part2.rar

Filesonic :
http://www.filesonic.com/file/278290....avi.part1.rar
http://www.filesonic.com/file/278290....avi.part2.rar

PLEASE REPLY IF YOU LIKE MY POST!

SCREENSHOT :


NFO :
General
Complete name : Larry.Crowne.2011.BRRip.XviD.AC3-FUSiON.avi
Format : AVI
Format/Info : Audio Video Interleave
File size : 1.37 GiB
Duration : 1h 38mn
Overall bit rate : 1 983 Kbps

Video
ID : 0
Format : MPEG-4 Visual
Format profile : Advanced [email protected]
Format settings, BVOP : 2
Format settings, QPel : No
Format settings, GMC : No warppoints
Format settings, Matrix : Default (MPEG)
Codec ID : XVID
Codec ID/Hint : XviD
Duration : 1h 38mn
Bit rate : 1 588 Kbps
Width : 640 pixels
Height : 272 pixels
Display aspect ratio : 2.35:1
Frame rate : 23.976 fps
Color space : YUV
Chroma subsampling : 4:2:0
Bit depth : 8 bits
Scan type : Progressive
Compression mode : Lossy
Bits/(Pixel*Frame) : 0.381
Stream size : 1.09 GiB (80%)
Writing library : XviD 1.2.1 (UTC 2008-12-04)

Audio
ID : 1
Format : AC-3
Format/Info : Audio Coding 3
Mode extension : CM (complete main)
Codec ID : 2000
Duration : 1h 38mn
Bit rate mode : Constant
Bit rate : 384 Kbps
Channel(s) : 6 channels
Channel positions : Front: L C R, Side: L R, LFE
Sampling rate : 48.0 KHz
Bit depth : 16 bits
Compression mode : Lossy
Stream size : 271 MiB (19%)
Alignment : Aligned on interleaves
Interleave, duration : 32 ms (0.77 video frame)