The.Woman.2011.DVDRip.XviD-ViP3R



IMDB :
http://www.imdb.com/title/tt1714208/



Synopsis:
Plot: When a successful country lawyer captures and attempts to “civilize” the last remaining member of a violent clan that has roamed the Northeast coast for decades, he puts the lives of his family in jeopardy.
Wupload :
http://www.wupload.com/file/13292020...-ViP3R.avi.rar

Fileserve :
http://www.fileserve.com/file/8bRatk...-ViP3R.avi.rar

Filejungle :
http://www.filejungle.com/f/HMCNZc/T...-ViP3R.avi.rar

Filesonic :
http://www.filesonic.com/file/278216...-ViP3R.avi.rar

PLEASE REPLY IF YOU LIKE MY POST!

SCREENSHOT :


NFO :
General
Complete name : The.Woman.2011.DVDRip.XviD-ViP3R.avi
Format : AVI
Format/Info : Audio Video Interleave
File size : 700 MiB
Duration : 1h 38mn
Overall bit rate : 993 Kbps
Writing application : VirtualDubMod 1.5.4.1 (build 2178/release)
Writing library : VirtualDubMod build 2178/release

Video
ID : 0
Format : MPEG-4 Visual
Format profile : Advanced [email protected]
Format settings, BVOP : 1
Format settings, QPel : No
Format settings, GMC : No warppoints
Format settings, Matrix : Custom
Codec ID : XVID
Codec ID/Hint : XviD
Duration : 1h 38mn
Bit rate : 872 Kbps
Width : 624 pixels
Height : 352 pixels
Display aspect ratio : 16:9
Frame rate : 25.000 fps
Color space : YUV
Chroma subsampling : 4:2:0
Bit depth : 8 bits
Scan type : Progressive
Compression mode : Lossy
Bits/(Pixel*Frame) : 0.159
Stream size : 614 MiB (88%)
Writing library : XviD 1.2.1 (UTC 2008-12-04)

Audio
ID : 1
Format : MPEG Audio
Format version : Version 1
Format profile : Layer 3
Mode : Joint stereo
Mode extension : MS Stereo
Codec ID : 55
Codec ID/Hint : MP3
Duration : 1h 38mn
Bit rate mode : Constant
Bit rate : 32.0 Kbps
Channel(s) : 2 channels
Sampling rate : 48.0 KHz
Compression mode : Lossy
Stream size : 76.6 MiB (11%)
Alignment : Aligned on interleaves
Interleave, duration : 24 ms (0.60 video frame)
Interleave, preload duration : 148 ms
Writing library : LAME3.98.2
Language : English