Silent.Night-Zombie.Night.2009.DVDRip.XviD-TiCTaC



IMDB :
http://www.imdb.com/title/tt1330216/



Synopsis:
Plot: A week before Christmas a viral outbreak turns the citizens of Los Angeles into the walking dead. On the brink of severing ties with both his wife and longtime partner, L.A.P.D. officer Frank Talbot finds himself trapped with them. As death closes in their survival is further threatened by the fact that both men love the same woman.
Wupload :
http://www.wupload.com/file/13292034...TiCTaC.avi.rar

Fileserve :
http://www.fileserve.com/file/UMJmnX...TiCTaC.avi.rar

Filejungle :
http://www.filejungle.com/f/Ct7eeE/S...TiCTaC.avi.rar

Filesonic :
http://www.filesonic.com/file/278216...TiCTaC.avi.rar

PLEASE REPLY IF YOU LIKE MY POST!

SCREENSHOT :


NFO :
General
Complete name : Silent.Night-Zombie.Night.2009.DVDRip.XviD-TiCTaC.avi
Format : AVI
Format/Info : Audio Video Interleave
File size : 1 014 MiB
Duration : 1h 23mn
Overall bit rate : 1 705 Kbps
Writing application : Lavf52.13.0
Writing library : VirtualDub build 32842/release

Video
ID : 0
Format : MPEG-4 Visual
Format profile : [email protected]
Format settings, BVOP : No
Format settings, QPel : No
Format settings, GMC : No warppoints
Format settings, Matrix : Default (H.263)
Codec ID : XVID
Codec ID/Hint : XviD
Duration : 1h 23mn
Bit rate : 1 500 Kbps
Width : 720 pixels
Height : 432 pixels
Display aspect ratio : 16:9
Frame rate : 25.000 fps
Color space : YUV
Chroma subsampling : 4:2:0
Bit depth : 8 bits
Scan type : Progressive
Compression mode : Lossy
Bits/(Pixel*Frame) : 0.193
Stream size : 892 MiB (88%)
Writing library : Lavc51.54.0

Audio
ID : 1
Format : MPEG Audio
Format version : Version 1
Format profile : Layer 3
Mode : Joint stereo
Mode extension : MS Stereo
Codec ID : 55
Codec ID/Hint : MP3
Duration : 1h 23mn
Bit rate mode : Constant
Bit rate : 192 Kbps
Channel(s) : 2 channels
Sampling rate : 44.1 KHz
Compression mode : Lossy
Stream size : 114 MiB (11%)
Alignment : Aligned on interleaves
Interleave, duration : 26 ms (0.65 video frame)
Interleave, preload duration : 522 ms