Harry.Potter.And.The.Deathly.Hallows.Part.2.2011.DVDRip.XviD-ViP3R



IMDB :
http://www.imdb.com/title/tt1201607/



Synopsis:
Plot: The final chapter begins as Harry, Ron, and Hermione continue their quest of finding and destroying the Dark Lord’s three remaining Horcruxes, the magical items responsible for his immortality. But as the mystical Deathly Hallows are uncovered, and Voldemort finds out about their mission, the biggest battle begins and life as they know it will never be the same again.
Wupload :
http://www.wupload.com/file/13292160...-ViP3R.avi.rar

Fileserve :
http://www.fileserve.com/file/NTxfFh...-ViP3R.avi.rar

Filejungle :
http://www.filejungle.com/f/QUtFc5/H...-ViP3R.avi.rar

Filesonic :
http://www.filesonic.com/file/278215...-ViP3R.avi.rar

PLEASE REPLY IF YOU LIKE MY POST!

SCREENSHOT :


NFO :
General
Complete name : Harry.Potter.And.The.Deathly.Hallows.Part.2.2011.DVDRip.XviD-ViP3R.avi
Format : AVI
Format/Info : Audio Video Interleave
Format profile : OpenDML
Format settings : rec
File size : 795 MiB
Duration : 2h 10mn
Overall bit rate : 852 Kbps
Writing application : AVI-Mux GUI 1.17.8.3, Feb 16 201019:42:50

Video
ID : 0
Format : MPEG-4 Visual
Format profile : Advanced [email protected]
Format settings, BVOP : 1
Format settings, QPel : No
Format settings, GMC : No warppoints
Format settings, Matrix : Custom
Codec ID : XVID
Codec ID/Hint : XviD
Duration : 2h 10mn
Bit rate : 726 Kbps
Width : 640 pixels
Height : 272 pixels
Display aspect ratio : 2.35:1
Frame rate : 23.976 fps
Color space : YUV
Chroma subsampling : 4:2:0
Bit depth : 8 bits
Scan type : Progressive
Compression mode : Lossy
Bits/(Pixel*Frame) : 0.174
Stream size : 678 MiB (85%)
Writing library : XviD 1.2.1 (UTC 2008-12-04)

Audio
ID : 1
Format : MPEG Audio
Format version : Version 1
Format profile : Layer 3
Mode : Joint stereo
Codec ID : 55
Codec ID/Hint : MP3
Duration : 2h 10mn
Bit rate mode : Variable
Bit rate : 117 Kbps
Channel(s) : 2 channels
Sampling rate : 48.0 KHz
Compression mode : Lossy
Stream size : 109 MiB (14%)
Alignment : Aligned on interleaves
Interleave, duration : 24 ms (0.58 video frame)
Interleave, preload duration : 137 ms
Writing library : LAME3.98.2