Where.the.Road.Meets.the.Sun.2011.FESTiVAL.DVDRip.XviD-AEN



IMDB :
http://www.imdb.com/title/tt1477173/



Synopsis:
Plot: A drama centered on a man dealing with the aftereffects of being in a coma caused by a car accident.
Wupload :
http://www.wupload.com/file/12962880...1.xvid.avi.rar

Fileserve :
http://www.fileserve.com/file/bDUXvN...1.xvid.avi.rar

Filejungle :
http://www.filejungle.com/f/2MYq8n/a...1.xvid.avi.rar

Filesonic :
http://www.filesonic.com/file/277580...1.xvid.avi.rar

PLEASE REPLY IF YOU LIKE MY POST!

SCREENSHOT :


NFO :
General
Complete name : aen-where.the.road.meets.the.sun.2011.xvid.avi
Format : AVI
Format/Info : Audio Video Interleave
File size : 700 MiB
Duration : 1h 32mn
Overall bit rate : 1 057 Kbps
Writing application : VirtualDubMod 1.5.10.2 (build 2540/release)
Writing library : VirtualDubMod build 2540/release

Video
ID : 0
Format : MPEG-4 Visual
Format profile : Advanced [email protected]
Format settings, BVOP : 2
Format settings, QPel : No
Format settings, GMC : No warppoints
Format settings, Matrix : Default (H.263)
Codec ID : XVID
Codec ID/Hint : XviD
Duration : 1h 32mn
Bit rate : 938 Kbps
Width : 624 pixels
Height : 352 pixels
Display aspect ratio : 16:9
Frame rate : 23.976 fps
Color space : YUV
Chroma subsampling : 4:2:0
Bit depth : 8 bits
Scan type : Progressive
Compression mode : Lossy
Bits/(Pixel*Frame) : 0.178
Stream size : 621 MiB (89%)
Writing library : XviD 1.2.1 (UTC 2008-12-04)

Audio
ID : 1
Format : MPEG Audio
Format version : Version 1
Format profile : Layer 3
Mode : Joint stereo
Codec ID : 55
Codec ID/Hint : MP3
Duration : 1h 32mn
Bit rate mode : Variable
Bit rate : 106 Kbps
Nominal bit rate : 128 Kbps
Channel(s) : 2 channels
Sampling rate : 48.0 KHz
Compression mode : Lossy
Stream size : 70.4 MiB (10%)
Alignment : Aligned on interleaves
Interleave, duration : 24 ms (0.58 video frame)
Interleave, preload duration : 639 ms
Writing library : LAME3.92
Encoding settings : -m j -V 0 -q 2 -lowpass 15.3 --abr 128